<?xml version="1.0" standalone="no"?>
<!DOCTYPE svg PUBLIC "-//W3C//DTD SVG 1.1//EN" "http://www.w3.org/Graphics/SVG/1.1/DTD/svg11.dtd" >
<svg xmlns="http://www.w3.org/2000/svg" xmlns:xlink="http://www.w3.org/1999/xlink" version="1.1">
<metadata>
Created by FontForge 20200314 at Mon Oct  5 09:52:23 2020
 By Robert Madole
Copyright (c) Font Awesome
</metadata>
<!-- Font Awesome Pro 5.15.1 by @fontawesome - https://fontawesome.com License - https://fontawesome.com/license (Commercial License) --><defs>
<font id="FontAwesome5Pro-Solid" horiz-adv-x="512" >
  <font-face 
    font-family="Font Awesome 5 Pro Solid"
    font-weight="900"
    font-stretch="normal"
    units-per-em="512"
    panose-1="2 0 5 3 0 0 0 0 0 0"
    ascent="448"
    descent="-64"
    bbox="-1 -65 640.009 450"
    underline-thickness="25"
    underline-position="-50"
    unicode-range="U+0020-F8FF"
  />
    <missing-glyph />
    <glyph glyph-name="music" unicode="&#xf001;" 
d="M470.38 446.49c3.03613 0.957031 6.26953 1.47949 9.62012 1.47949c17.6514 0 31.9834 -14.3223 32 -31.9697v-352c0 -35.3496 -43 -64 -96 -64s-96 28.6602 -96 64s43 64 96 64c11.0361 -0.0605469 21.7158 -1.4248 32 -3.92969v184.609l-256 -75v-233.68
c0 -35.3398 -43 -64 -96 -64s-96 28.6602 -96 64s43 64 96 64c11.0352 -0.0625 21.7139 -1.42285 32 -3.91992v261.41c0.00878906 14.3125 9.43359 26.4336 22.4102 30.5098z" />
    <glyph glyph-name="print" unicode="&#xf02f;" 
d="M448 256c35.3496 0 64 -28.6504 64 -64v-112c0 -8.83984 -7.16016 -16 -16 -16h-48v-96c0 -17.6699 -14.3301 -32 -32 -32h-320c-17.6699 0 -32 14.3301 -32 32v96h-48c-8.83984 0 -16 7.16016 -16 16v112c0 35.3496 28.6504 64 64 64v160c0 17.6699 14.3301 32 32 32
h274.74c8.49023 0 16.6299 -3.37012 22.6299 -9.37012l45.2598 -45.25c6 -6.00977 9.37012 -14.1396 9.37012 -22.6299v-114.75zM384 0v96h-256v-96h256zM384 224v96h-48c-8.83984 0 -16 7.16016 -16 16v48h-192v-160h256zM432 152c13.25 0 24 10.75 24 24
c0 13.2598 -10.75 24 -24 24s-24 -10.7402 -24 -24c0 -13.25 10.75 -24 24 -24z" />
    <glyph glyph-name="adjust" unicode="&#xf042;" 
d="M8 192c0 136.967 111.034 248 248 248s248 -111.034 248 -248s-111.033 -248 -248 -248s-248 111.034 -248 248zM256 8c101.689 0 184 82.2949 184 184c0 101.689 -82.2949 184 -184 184v-368z" />
    <glyph glyph-name="external-link" unicode="&#xf08e;" 
d="M432 128c8.83105 0 16 -7.16895 16 -16v-128c0 -26.4922 -21.5078 -48 -48 -48h-352c-26.4922 0 -48 21.5078 -48 48v352c0 26.4922 21.5078 48 48 48h160c8.83105 0 16 -7.16895 16 -16v-32c0 -8.83105 -7.16895 -16 -16 -16h-144v-320h320v112
c0 8.83105 7.16895 16 16 16h32zM474.67 448c20.6035 0 37.3301 -16.7266 37.3301 -37.3301v0v-158.67c0 -15.4541 -12.5459 -28 -28 -28h-17.8799c-15.4541 0 -28 12.5459 -28 28v0.780273l1.87988 67.2197l-247.09 -248.91
c-4.34668 -4.36133 -10.3662 -7.06152 -17.0039 -7.06152c-6.5918 0 -12.5674 2.66309 -16.9062 6.97168l-0.0595703 0.0595703l-23.9404 23.8506c-4.34375 4.34375 -7.03223 10.3506 -7.03223 16.9736c0 6.62207 2.68848 12.6221 7.03223 16.9658l0.0595703 0.0605469
l248.94 247.09l-67.21 -1.90039c-0.270508 -0.0078125 -0.529297 0.00195312 -0.801758 0.00195312c-15.1816 0 -27.5576 12.1094 -27.9883 27.1885v18.71c0 15.4541 12.5459 28 28 28h158.67z" />
    <glyph glyph-name="trophy" unicode="&#xf091;" horiz-adv-x="576" 
d="M552 384c13.2998 0 24 -10.7002 24 -24v-56c0 -35.7002 -22.5996 -72.4004 -61.9004 -100.7c-31.3994 -22.7002 -69.6992 -37.0996 -110 -41.7002c-31.3994 -52.0996 -68.0996 -73.5996 -68.0996 -73.5996v-72h48c35.2998 0 64 -20.7002 64 -56v-12
c0 -6.59961 -5.40039 -12 -12 -12h-296c-6.59961 0 -12 5.40039 -12 12v12c0 35.2998 28.7002 56 64 56h48v72s-36.7002 21.5 -68.0996 73.5996c-40.2002 4.60059 -78.5 19 -110 41.7002c-39.4004 28.2998 -61.9004 65 -61.9004 100.7v56c0 13.2998 10.7002 24 24 24h104v40
c0 13.2998 10.7002 24 24 24h272c13.2998 0 24 -10.7002 24 -24v-40h104zM99.2998 255.2c12.5 -9 26.6006 -16.2002 41.7002 -21.4004c-7 25 -11.7998 53.6006 -12.7998 86.2002h-64.2002v-16c0 -11.5996 10.9004 -31.2002 35.2998 -48.7998zM512 304v16h-64.2998
c-1 -32.5996 -5.7998 -61.2002 -12.7998 -86.2002c15.0996 5.2002 29.2998 12.4004 41.7998 21.4004c17.5996 12.7002 35.2998 32.7002 35.2998 48.7998z" />
    <glyph glyph-name="bell" unicode="&#xf0f3;" horiz-adv-x="448" 
d="M224 -64c-35.3203 0 -63.9697 28.6504 -63.9697 64h127.939c0 -35.3496 -28.6494 -64 -63.9697 -64zM439.39 85.71c6 -6.44043 8.66016 -14.1602 8.61035 -21.71c-0.0996094 -16.4004 -12.9805 -32 -32.0996 -32h-383.801c-19.1191 0 -31.9893 15.5996 -32.0996 32
c-0.0498047 7.5498 2.61035 15.2598 8.61035 21.71c19.3193 20.7598 55.4697 51.9902 55.4697 154.29c0 77.7002 54.4795 139.9 127.939 155.16v20.8398c0 17.6699 14.3203 32 31.9805 32s31.9805 -14.3301 31.9805 -32v-20.8398
c73.46 -15.2598 127.939 -77.46 127.939 -155.16c0 -102.3 36.1504 -133.53 55.4697 -154.29z" />
    <glyph glyph-name="angle-left" unicode="&#xf104;" horiz-adv-x="256" 
d="M31.7002 209l136 136c9.39941 9.40039 24.5996 9.40039 33.8994 0l22.6006 -22.5996c9.39941 -9.40039 9.39941 -24.6006 0 -33.9004l-96.2998 -96.5l96.3994 -96.4004c9.40039 -9.39941 9.40039 -24.5996 0 -33.8994l-22.5996 -22.7002
c-9.40039 -9.40039 -24.6006 -9.40039 -33.9004 0l-136 136c-9.5 9.40039 -9.5 24.5996 -0.0996094 34z" />
    <glyph glyph-name="angle-right" unicode="&#xf105;" horiz-adv-x="256" 
d="M224.3 175l-136 -136c-9.39941 -9.40039 -24.5996 -9.40039 -33.8994 0l-22.6006 22.5996c-9.39941 9.40039 -9.39941 24.6006 0 33.9004l96.4004 96.4004l-96.4004 96.3994c-9.39941 9.40039 -9.39941 24.6006 0 33.9004l22.5 22.7998
c9.40039 9.40039 24.6006 9.40039 33.9004 0l136 -136c9.5 -9.40039 9.5 -24.5996 0.0996094 -34z" />
    <glyph glyph-name="gamepad" unicode="&#xf11b;" horiz-adv-x="640" 
d="M480.07 352c88.2842 -0.0263672 159.938 -71.7402 159.938 -160.03c0 -88.3066 -71.6934 -160 -160 -160c-44.7324 0 -85.2021 18.3965 -114.249 48.0303h-91.5195c-29.0469 -29.6338 -69.5078 -48 -114.24 -48c-88.3066 0 -160 71.6934 -160 160s71.6934 160 160 160
h320.07zM248 180v24c0 6.62305 -5.37695 12 -12 12h-52v52c0 6.62305 -5.37695 12 -12 12h-24c-6.62305 0 -12 -5.37695 -12 -12v-52h-52c-6.62305 0 -12 -5.37695 -12 -12v-24c0 -6.62305 5.37695 -12 12 -12h52v-52c0 -6.62305 5.37695 -12 12 -12h24
c6.62305 0 12 5.37695 12 12v52h52c6.62305 0 12 5.37695 12 12zM464 104c22.0762 0 40 17.9238 40 40s-17.9238 40 -40 40s-40 -17.9238 -40 -40s17.9238 -40 40 -40zM528 200c22.0762 0 40 17.9238 40 40s-17.9238 40 -40 40s-40 -17.9238 -40 -40s17.9238 -40 40 -40z
" />
    <glyph glyph-name="anchor" unicode="&#xf13d;" horiz-adv-x="576" 
d="M12.9707 96c-10.6904 0 -16.0449 12.9258 -8.48535 20.4854l67.0283 67.0283c4.6875 4.68652 12.2852 4.68652 16.9717 0l67.0283 -67.0283c7.56055 -7.55957 2.20605 -20.4854 -8.48438 -20.4854h-35.1465c20.2969 -54.3359 85.1816 -86.6162 144.117 -94.0146v190.015
h-52c-6.62695 0 -12 5.37305 -12 12v40c0 6.62695 5.37305 12 12 12h52v5.46973c-37.2842 13.1807 -64 48.7324 -64 90.5303c0 53.4746 43.7227 96.7393 97.3701 95.9902c52.2354 -0.728516 94.6348 -43.7627 94.6289 -96.002
c-0.00488281 -41.793 -26.7188 -77.3398 -64 -90.5186v-5.46973h52c6.62695 0 12 -5.37305 12 -12v-40c0 -6.62695 -5.37305 -12 -12 -12h-52v-190.015c59.1543 7.42676 123.827 39.6973 144.117 94.0146h-35.1465c-10.6904 0 -16.0449 12.9248 -8.48438 20.4854
l67.0283 67.0283c4.6875 4.68652 12.2852 4.68652 16.9717 0l67.0283 -67.0283c7.56055 -7.55957 2.20605 -20.4854 -8.48438 -20.4854h-32.3945c-21.7822 -102.62 -136.406 -160 -242.635 -160c-106.056 0 -220.828 57.2646 -242.635 160h-32.3945zM288 384
c-17.6445 0 -32 -14.3555 -32 -32s14.3555 -32 32 -32s32 14.3555 32 32s-14.3555 32 -32 32z" />
    <glyph glyph-name="level-down" unicode="&#xf149;" horiz-adv-x="352" 
d="M345.04 80l-136 -136.901c-9.3877 -9.46484 -24.6914 -9.46484 -34.0791 0l-136.001 136.901c-9.30664 9.38379 -9.27734 24.5264 0.0693359 33.8721l22.0557 22.0557c9.61914 9.61914 25.3008 9.3291 34.5566 -0.638672l56.3584 -60.4492v293.16h-83.9756
c-3.31152 0 -6.31348 1.34277 -8.48535 3.51465l-56 56c-7.56055 7.55957 -2.20605 20.4854 8.48535 20.4854h195.976c13.2549 0 24 -10.7451 24 -24v-349.16l56.3574 60.4482c9.25586 9.96777 24.9375 10.2578 34.5566 0.638672l22.0557 -22.0557
c9.34668 -9.34473 9.37695 -24.4873 0.0703125 -33.8711z" />
    <glyph glyph-name="fax" unicode="&#xf1ac;" 
d="M480 288c17.6611 0 32 -14.3389 32 -32v-288c0 -17.6611 -14.3389 -32 -32 -32h-320c-17.6611 0 -32 14.3389 -32 32v448c0 17.6611 14.3389 32 32 32h242.75c8.82715 -0.000976562 16.8291 -3.58008 22.6201 -9.37012l45.25 -45.25
c5.7959 -5.79199 9.37891 -13.7979 9.37988 -22.6299v-82.75zM288 16v32c0 8.83105 -7.16895 16 -16 16h-32c-8.83105 0 -16 -7.16895 -16 -16v-32c0 -8.83105 7.16895 -16 16 -16h32c8.83105 0 16 7.16895 16 16zM288 144v32c0 8.83105 -7.16895 16 -16 16h-32
c-8.83105 0 -16 -7.16895 -16 -16v-32c0 -8.83105 7.16895 -16 16 -16h32c8.83105 0 16 7.16895 16 16zM416 16v32c0 8.83105 -7.16895 16 -16 16h-32c-8.83105 0 -16 -7.16895 -16 -16v-32c0 -8.83105 7.16895 -16 16 -16h32c8.83105 0 16 7.16895 16 16zM416 144v32
c0 8.83105 -7.16895 16 -16 16h-32c-8.83105 0 -16 -7.16895 -16 -16v-32c0 -8.83105 7.16895 -16 16 -16h32c8.83105 0 16 7.16895 16 16zM416 256v64h-48c-8.83105 0 -16 7.16895 -16 16v48h-160v-128h224zM64 320c17.6611 0 32 -14.3389 32 -32v-320
c0 -17.6611 -14.3389 -32 -32 -32h-32c-17.6611 0 -32 14.3389 -32 32v320c0 17.6611 14.3389 32 32 32h32z" />
    <glyph glyph-name="calculator" unicode="&#xf1ec;" horiz-adv-x="448" 
d="M400 448c25.5996 0 48 -22.4004 48 -48v-416c0 -25.5996 -22.4004 -48 -48 -48h-352c-25.5996 0 -48 22.4004 -48 48v416c0 25.5996 22.4004 48 48 48h352zM128 12.7998v38.4004c0 6.39941 -6.40039 12.7998 -12.7998 12.7998h-38.4004
c-6.39941 0 -12.7998 -6.40039 -12.7998 -12.7998v-38.4004c0 -6.39941 6.40039 -12.7998 12.7998 -12.7998h38.4004c6.39941 0 12.7998 6.40039 12.7998 12.7998zM128 140.8v38.4004c0 6.39941 -6.40039 12.7998 -12.7998 12.7998h-38.4004
c-6.39941 0 -12.7998 -6.40039 -12.7998 -12.7998v-38.4004c0 -6.39941 6.40039 -12.7998 12.7998 -12.7998h38.4004c6.39941 0 12.7998 6.40039 12.7998 12.7998zM256 12.7998v38.4004c0 6.39941 -6.40039 12.7998 -12.7998 12.7998h-38.4004
c-6.39941 0 -12.7998 -6.40039 -12.7998 -12.7998v-38.4004c0 -6.39941 6.40039 -12.7998 12.7998 -12.7998h38.4004c6.39941 0 12.7998 6.40039 12.7998 12.7998zM256 140.8v38.4004c0 6.39941 -6.40039 12.7998 -12.7998 12.7998h-38.4004
c-6.39941 0 -12.7998 -6.40039 -12.7998 -12.7998v-38.4004c0 -6.39941 6.40039 -12.7998 12.7998 -12.7998h38.4004c6.39941 0 12.7998 6.40039 12.7998 12.7998zM384 12.7998v166.4c0 6.39941 -6.40039 12.7998 -12.7998 12.7998h-38.4004
c-6.39941 0 -12.7998 -6.40039 -12.7998 -12.7998v-166.4c0 -6.39941 6.40039 -12.7998 12.7998 -12.7998h38.4004c6.39941 0 12.7998 6.40039 12.7998 12.7998zM384 268.8v102.4c0 6.39941 -6.40039 12.7998 -12.7998 12.7998h-294.4
c-6.39941 0 -12.7998 -6.40039 -12.7998 -12.7998v-102.4c0 -6.39941 6.40039 -12.7998 12.7998 -12.7998h294.4c6.39941 0 12.7998 6.40039 12.7998 12.7998z" />
    <glyph glyph-name="mercury" unicode="&#xf223;" horiz-adv-x="288" 
d="M288 240c0 -68.5 -47.9004 -125.9 -112 -140.4v-51.5996h36c6.59961 0 12 -5.40039 12 -12v-40c0 -6.59961 -5.40039 -12 -12 -12h-36v-36c0 -6.59961 -5.40039 -12 -12 -12h-40c-6.59961 0 -12 5.40039 -12 12v36h-36c-6.59961 0 -12 5.40039 -12 12v40
c0 6.59961 5.40039 12 12 12h36v51.5996c-64.0996 14.5 -112 71.9004 -112 140.4c0 44.2002 19.9004 83.7002 51.2002 110c-2.5 1.90039 -4.90039 3.7998 -7.2002 5.7998c-24.7998 21.2002 -39.7998 48.7998 -43.2002 78.9004
c-0.899414 7.09961 4.7002 13.2998 11.9004 13.2998h40.5c5.7002 0 10.5996 -4.09961 11.7002 -9.7998c2.5 -12.5 9.59961 -24.2998 20.6992 -33.7998c15.4004 -13.2002 36.1006 -20.4004 58.4004 -20.4004s43 7.2002 58.2998 20.4004
c11.1006 9.5 18.2998 21.2998 20.7002 33.7998c1.09961 5.7002 6 9.7998 11.7998 9.7998h40.5c7.2002 0 12.7998 -6.2002 11.9004 -13.2998c-3.40039 -30 -18.5 -57.6006 -43.2002 -78.7998c-2.2998 -2 -4.7002 -4 -7.2002 -5.80078
c31.2998 -26.3994 51.2002 -65.8994 51.2002 -110.1zM64 240c0 -44.0996 35.9004 -80 80 -80s80 35.9004 80 80s-35.9004 80 -80 80s-80 -35.9004 -80 -80z" />
    <glyph glyph-name="transgender-alt" unicode="&#xf225;" horiz-adv-x="480" 
d="M468 448c6.59961 0 12 -5.40039 12 -12v-79c0 -10.7002 -12.9004 -16.0996 -20.5 -8.5l-16.9004 16.9004l-80.6992 -80.7002c14 -22.2002 22.0996 -48.5 22.0996 -76.7002c0 -68.5 -47.9004 -125.8 -112 -140.4v-27.5996h36c6.59961 0 12 -5.40039 12 -12v-40
c0 -6.59961 -5.40039 -12 -12 -12h-36v-28c0 -6.59961 -5.40039 -12 -12 -12h-40c-6.59961 0 -12 5.40039 -12 12v28h-36c-6.59961 0 -12 5.40039 -12 12v40c0 6.59961 5.40039 12 12 12h36v27.5996c-64.0996 14.5 -112 71.9004 -112 140.4
c0 28.2002 8.09961 54.5 22.2002 76.5996l-16.5 16.5l-19.7998 -19.7998c-4.7002 -4.7002 -12.3008 -4.7002 -17 0l-28.3008 28.2998c-4.69922 4.7002 -4.69922 12.3008 0 17l19.8008 19.8008l-19 19l-16.9004 -16.9004c-7.59961 -7.5 -20.5 -2.2002 -20.5 8.5v79
c0 6.59961 5.40039 12 12 12h79c10.7002 0 16.0996 -12.9004 8.40039 -20.4004l-16.9004 -16.8994l19 -19l19.7998 19.7998c4.7002 4.7002 12.2998 4.7002 17 0l28.2998 -28.2998c4.7002 -4.7002 4.7002 -12.2998 0 -17l-19.7998 -19.7998l16.5 -16.5
c22.2002 14 48.5 22.0996 76.7002 22.0996s54.5 -8.09961 76.7002 -22.0996l80.7002 80.6992l-16.9004 16.9004c-7.5 7.59961 -2.2002 20.5 8.5 20.5h79zM240 128c44.0996 0 80 35.9004 80 80s-35.9004 80 -80 80s-80 -35.9004 -80 -80s35.9004 -80 80 -80z" />
    <glyph glyph-name="mars-stroke-v" unicode="&#xf22a;" horiz-adv-x="288" 
d="M245.8 213.8c56.2998 -56.2002 56.2998 -147.399 0 -203.6c-56.2002 -56.2002 -147.399 -56.2002 -203.6 0s-56.2002 147.399 0 203.6c19.8994 19.9004 44.2002 32.7998 69.7998 38.6006v25.3994h-20c-6.59961 0 -12 5.40039 -12 12v40c0 6.60059 5.40039 12 12 12h20
v24.7002h-23.9004c-10.6992 0 -16.0996 12.9004 -8.5 20.5l55.9004 55.9004c4.7002 4.69922 12.2998 4.69922 17 0l55.9004 -55.8008c7.5 -7.59961 2.19922 -20.5 -8.5 -20.5h-23.9004v-24.7998h20c6.59961 0 12 -5.39941 12 -12v-40c0 -6.59961 -5.40039 -12 -12 -12h-20
v-25.3994c25.5996 -5.80078 49.9004 -18.7002 69.7998 -38.6006zM200.6 55.4004c31.2002 31.1992 31.2002 82 0 113.1c-31.1992 31.2002 -81.8994 31.2002 -113.1 0s-31.2002 -81.9004 0 -113.1c31.2002 -31.2002 81.9004 -31.2002 113.1 0z" />
    <glyph glyph-name="mars-stroke-h" unicode="&#xf22b;" horiz-adv-x="480" 
d="M476.2 200.5c4.7002 -4.7002 4.7002 -12.2998 0.0996094 -17l-55.8994 -55.9004c-7.60059 -7.5 -20.5 -2.19922 -20.5 8.5v23.9004h-23.9004v-20c0 -6.59961 -5.40039 -12 -12 -12h-40c-6.59961 0 -12 5.40039 -12 12v20h-27.5996
c-5.80078 -25.5996 -18.7002 -49.9004 -38.6006 -69.7998c-56.2002 -56.2002 -147.399 -56.2002 -203.6 0s-56.2002 147.399 0 203.6s147.399 56.2002 203.6 0c19.9004 -19.8994 32.7998 -44.2002 38.6006 -69.7998h27.5996v20c0 6.59961 5.40039 12 12 12h40
c6.59961 0 12 -5.40039 12 -12v-20h23.7998v23.9004c0 10.6992 12.9004 16.0996 20.5 8.5zM200.6 135.4c31.2002 31.1992 31.2002 82 0 113.1c-31.1992 31.2002 -81.8994 31.2002 -113.1 0s-31.2002 -81.9004 0 -113.1c31.2002 -31.2002 81.9004 -31.2002 113.1 0z" />
    <glyph glyph-name="neuter" unicode="&#xf22c;" horiz-adv-x="288" 
d="M288 272c0 -68.5 -47.9004 -125.9 -112 -140.4v-151.6c0 -6.59961 -5.40039 -12 -12 -12h-40c-6.59961 0 -12 5.40039 -12 12v151.6c-64.0996 14.5 -112 71.9004 -112 140.4c0 79.5 64.5 144 144 144s144 -64.5 144 -144zM144 192c44.0996 0 80 35.9004 80 80
s-35.9004 80 -80 80s-80 -35.9004 -80 -80s35.9004 -80 80 -80z" />
    <glyph glyph-name="clone" unicode="&#xf24d;" 
d="M464 448c26.5098 0 48 -21.4902 48 -48v-288c0 -26.5098 -21.4902 -48 -48 -48h-288c-26.5098 0 -48 21.4902 -48 48v288c0 26.5098 21.4902 48 48 48h288zM176 32h208v-48c0 -26.5098 -21.4902 -48 -48 -48h-288c-26.5098 0 -48 21.4902 -48 48v288
c0 26.5098 21.4902 48 48 48h48v-208c0 -44.1123 35.8877 -80 80 -80z" />
    <glyph glyph-name="tv" unicode="&#xf26c;" horiz-adv-x="640" 
d="M592 448c26.4922 0 48 -21.5078 48 -48v-320c0 -26.4922 -21.5078 -48 -48 -48h-240v-32h176c8.83105 0 16 -7.16895 16 -16v-32c0 -8.83105 -7.16895 -16 -16 -16h-416c-8.83105 0 -16 7.16895 -16 16v32c0 8.83105 7.16895 16 16 16h176v32h-240
c-26.4922 0 -48 21.5078 -48 48v320c0 26.4922 21.5078 48 48 48h544zM576 96v288h-512v-288h512z" />
    <glyph glyph-name="blind" unicode="&#xf29d;" horiz-adv-x="384" 
d="M380.15 -62.8369c-1.20898 -0.733398 -2.62695 -1.15625 -4.14258 -1.15625c-2.89941 0 -5.44336 1.53223 -6.84668 3.84277l-125.33 206.428c5.10547 2.02539 9.53809 5.2959 12.958 9.48438l126.048 -207.607c0.734375 -1.20898 1.15723 -2.62793 1.15723 -4.14355
c0 -2.89941 -1.53223 -5.44434 -3.84375 -6.84766zM142.803 133.662l62.8145 -153.537c6.69141 -16.3584 -1.14453 -35.042 -17.501 -41.7344c-16.3564 -6.69043 -35.04 1.1416 -41.7334 17.501l-36.1201 88.2852zM96 360c-24.3008 0 -44 19.6992 -44 44s19.6992 44 44 44
s44 -19.6992 44 -44s-19.6992 -44 -44 -44zM250.837 190.872c8.19336 -10.374 6.44434 -25.4922 -3.96582 -33.708c-9.33984 -7.37402 -24.5635 -7.61914 -33.708 3.96484l-102.3 129.217c-0.733398 0.924805 -1.86328 1.5127 -3.13281 1.5127
c-2.20801 0 -4.00098 -1.79297 -4.00098 -4.00098c0 -0.9375 0.323242 -1.7998 0.864258 -2.48242l31.4062 -39.8164v-107.196l-65.9258 -181.288c-6.04102 -16.6143 -24.4072 -25.1768 -41.0088 -19.1387c-16.6104 6.04004 -25.1787 24.4004 -19.1387 41.0098
l54.0732 148.693v140.698l-16 -20.5713v-79.7656c0 -13.0996 -10.4951 -23.748 -23.5361 -23.9961c-13.4531 -0.254883 -24.4639 11.0811 -24.4639 24.5361v95.6943l61.0557 78.5c4.72754 6.0791 11.7979 9.23633 18.9443 9.23926v0.0263672h32v-0.015625
c7.08691 -0.00390625 14.1035 -3.11719 18.8369 -9.1123z" />
    <glyph glyph-name="trophy-alt" unicode="&#xf2eb;" horiz-adv-x="576" 
d="M552 384c13.2998 0 24 -10.7002 24 -24v-56c0 -66.2998 -77.5996 -131.6 -171.9 -142.4c-31.3994 -52.0996 -68.0996 -73.5996 -68.0996 -73.5996v-72h48c35.2998 0 64 -20.7002 64 -56v-12c0 -6.59961 -5.40039 -12 -12 -12h-296c-6.59961 0 -12 5.40039 -12 12v12
c0 35.2998 28.7002 56 64 56h48v72s-36.7002 21.5 -68.0996 73.5996c-94 10.7002 -171.9 75.9004 -171.9 142.4v56c0 13.2998 10.7002 24 24 24h104v40c0 13.2998 10.7002 24 24 24h272c13.2998 0 24 -10.7002 24 -24v-40h104zM64 304c0 -20.2998 29.5 -53.7998 77 -70.2002
c-7 25 -11.7998 53.6006 -12.7998 86.2002h-64.2002v-16zM512 304v16h-64.2002c-1 -32.5996 -5.7998 -61.2002 -12.7998 -86.2002c47.5996 16.4004 77 50 77 70.2002zM384.7 299.3c7.09961 6.90039 3.2002 19 -6.40039 20.5l-54.7998 8l-24.5 49.6006
c-4.40039 8.89941 -17.0996 8.89941 -21.5 0l-24.5 -49.6006l-54.7998 -8c-9.90039 -1.5 -13.7998 -13.5996 -6.7002 -20.5l39.5996 -38.5996l-9.39941 -54.6006c-1.7002 -9.69922 8.59961 -17.1992 17.3994 -12.5996l49 25.7998l49 -25.7998
c8.7002 -4.59961 19.1006 2.7998 17.4004 12.5996l-9.40039 54.6006z" />
    <glyph glyph-name="times-hexagon" unicode="&#xf2ee;" horiz-adv-x="576" 
d="M553.5 216.2c8.7002 -14.9004 8.7002 -33.4004 0 -48.4004l-112 -192c-8.59961 -14.7002 -24.4004 -23.7998 -41.5 -23.7998h-224c-17.0996 0 -32.9004 9.09961 -41.5 23.7998l-112 192c-8.7002 14.9004 -8.7002 33.4004 0 48.4004l112 192
c8.59961 14.7002 24.4004 23.7998 41.5 23.7998h224c17.0996 0 32.9004 -9.09961 41.5 -23.7998zM409.6 110c4.7002 4.7002 4.7002 12.2998 0 17l-65 65l65.1006 65.0996c4.7002 4.7002 4.7002 12.3008 0 17l-39.7002 39.5c-4.7002 4.7002 -12.2998 4.7002 -17 0l-65 -65
l-65.0996 65.1006c-4.7002 4.7002 -12.3008 4.7002 -17 0l-39.5 -39.7002c-4.7002 -4.7002 -4.7002 -12.2998 0 -17l65.0996 -65.0996l-65.0996 -65.1006c-4.7002 -4.7002 -4.7002 -12.2998 0 -17l39.5996 -39.5996c4.7002 -4.7002 12.2998 -4.7002 17 0l65.0996 65.0996
l65.1006 -65.0996c4.7002 -4.7002 12.2998 -4.7002 17 0z" />
    <glyph glyph-name="star-exclamation" unicode="&#xf2f3;" horiz-adv-x="576" 
d="M259.3 430.2c11.7998 23.7998 45.7002 23.7002 57.4004 0l65.2998 -132.4l146.1 -21.2998c26.2002 -3.7998 36.7002 -36.0996 17.7002 -54.5996l-105.7 -103l25 -145.5c4.5 -26.2002 -23.0996 -46 -46.3994 -33.7002l-130.7 68.7002l-130.7 -68.6006
c-23.3994 -12.2998 -50.8994 7.60059 -46.3994 33.7002l25 145.5l-105.7 103c-19 18.5 -8.5 50.7998 17.7002 54.5996l146.1 21.2002zM256.1 288c-4.5 0 -8.5 -3.90039 -8 -8.59961l8 -112c0.300781 -4.2002 3.80078 -7.40039 8 -7.40039h48
c4.2002 0 7.7002 3.2002 8 7.40039l8 112c0.400391 4.5 -3.2998 8.59961 -8 8.59961h-64zM288 56c22.0996 0 40 17.9004 40 40s-17.9004 40 -40 40s-40 -17.9004 -40 -40s17.9004 -40 40 -40z" />
    <glyph glyph-name="plus-hexagon" unicode="&#xf300;" horiz-adv-x="576" 
d="M553.5 216.2c8.7002 -14.9004 8.7002 -33.4004 0 -48.4004l-112 -192c-8.59961 -14.7002 -24.4004 -23.7998 -41.5 -23.7998h-224c-17.0996 0 -32.9004 9.09961 -41.5 23.7998l-112 192c-8.7002 14.9004 -8.7002 33.4004 0 48.4004l112 192
c8.59961 14.7002 24.4004 23.7998 41.5 23.7998h224c17.0996 0 32.9004 -9.09961 41.5 -23.7998zM432 220c0 6.59961 -5.40039 12 -12 12h-92v92c0 6.59961 -5.40039 12 -12 12h-56c-6.59961 0 -12 -5.40039 -12 -12v-92h-92c-6.59961 0 -12 -5.40039 -12 -12v-56
c0 -6.59961 5.40039 -12 12 -12h92v-92c0 -6.59961 5.40039 -12 12 -12h56c6.59961 0 12 5.40039 12 12v92h92c6.59961 0 12 5.40039 12 12v56z" />
    <glyph glyph-name="minus-hexagon" unicode="&#xf307;" horiz-adv-x="576" 
d="M553.5 216.2c8.7002 -14.9004 8.7002 -33.4004 0 -48.4004l-112 -192c-8.59961 -14.7002 -24.4004 -23.7998 -41.5 -23.7998h-224c-17.0996 0 -32.9004 9.09961 -41.5 23.7998l-112 192c-8.7002 14.9004 -8.7002 33.4004 0 48.4004l112 192
c8.59961 14.7002 24.4004 23.7998 41.5 23.7998h224c17.0996 0 32.9004 -9.09961 41.5 -23.7998zM420 152c6.59961 0 12 5.40039 12 12v56c0 6.59961 -5.40039 12 -12 12h-264c-6.59961 0 -12 -5.40039 -12 -12v-56c0 -6.59961 5.40039 -12 12 -12h264z" />
    <glyph glyph-name="chevron-double-left" unicode="&#xf323;" 
d="M34.5 209l194.4 194.3c9.39941 9.40039 24.5996 9.40039 33.8994 0l22.7002 -22.7002c9.40039 -9.39941 9.40039 -24.5 0 -33.8994l-154 -154.7l154 -154.7c9.2998 -9.39941 9.2998 -24.5 0 -33.8994l-22.7002 -22.7002c-9.39941 -9.40039 -24.5996 -9.40039 -33.8994 0
l-194.4 194.3c-9.2998 9.40039 -9.2998 24.5996 0 34zM226.5 175c-9.2998 9.40039 -9.2998 24.5996 0 34l194.4 194.3c9.2998 9.40039 24.5 9.40039 33.8994 0l22.7002 -22.7002c9.2998 -9.39941 9.2998 -24.5 0 -33.8994l-154 -154.7l153.9 -154.7
c9.39941 -9.39941 9.39941 -24.5 0 -33.8994l-22.7002 -22.7002c-9.2998 -9.40039 -24.5 -9.40039 -33.9004 0z" />
    <glyph glyph-name="chevron-double-right" unicode="&#xf324;" 
d="M477.5 175l-194.4 -194.3c-9.39941 -9.40039 -24.5996 -9.40039 -33.8994 0l-22.7002 22.7002c-9.40039 9.39941 -9.40039 24.5 0 33.8994l154 154.7l-154 154.7c-9.2998 9.39941 -9.2998 24.5 0 33.8994l22.7002 22.7002c9.39941 9.40039 24.5996 9.40039 33.8994 0
l194.4 -194.3c9.2998 -9.40039 9.2998 -24.5996 0 -34zM285.5 209c9.2998 -9.40039 9.2998 -24.5996 0 -34l-194.4 -194.3c-9.2998 -9.40039 -24.5 -9.40039 -33.8994 0l-22.7002 22.7002c-9.2998 9.39941 -9.2998 24.5 0 33.8994l154 154.7l-154 154.7
c-9.40039 9.39941 -9.40039 24.5 0 33.8994l22.7002 22.7002c9.2998 9.40039 24.5 9.40039 33.8994 0z" />
    <glyph glyph-name="arrows-alt-v" unicode="&#xf338;" horiz-adv-x="256" 
d="M214.059 70.0586c21.3828 0 32.0908 -25.8516 16.9707 -40.9707l-86.0596 -86.0586c-9.37305 -9.37305 -24.5674 -9.37305 -33.9404 0l-86.0596 86.0586c-15.1191 15.1201 -4.41113 40.9707 16.9717 40.9707h46.0586v243.883h-46.0576
c-21.3828 0 -32.0908 25.8516 -16.9717 40.9707l86.0596 86.0586c9.37305 9.37305 24.5674 9.37305 33.9404 0l86.0596 -86.0586c15.1191 -15.1201 4.41113 -40.9707 -16.9717 -40.9707h-46.0586v-243.883h46.0586z" />
    <glyph glyph-name="arrow-to-bottom" unicode="&#xf33d;" horiz-adv-x="384" 
d="M360 -32h-336c-13.2998 0 -24 10.7002 -24 24v24c0 13.2998 10.7002 24 24 24h336c13.2998 0 24 -10.7002 24 -24v-24c0 -13.2998 -10.7002 -24 -24 -24zM293.6 248.5c9.30078 9.40039 24.5 9.40039 33.8008 0l17 -17c9.39941 -9.2998 9.39941 -24.5 0 -33.9004
l-135.5 -135.5c-9.30078 -9.39941 -24.5 -9.39941 -33.9004 0l-135.5 135.5c-9.40039 9.30078 -9.40039 24.5 0 33.9004l17 17c9.2998 9.40039 24.5 9.40039 33.9004 0l65.5996 -65.5996v209.1c0 13.2998 10.7002 24 24 24h24c13.2998 0 24 -10.7002 24 -24v-209.1z" />
    <glyph glyph-name="external-link-alt" unicode="&#xf35d;" 
d="M432 128c8.83105 0 16 -7.16895 16 -16v-128c0 -26.4922 -21.5078 -48 -48 -48h-352c-26.4922 0 -48 21.5078 -48 48v352c0 26.4922 21.5078 48 48 48h160c8.83105 0 16 -7.16895 16 -16v-32c0 -8.83105 -7.16895 -16 -16 -16h-144v-320h320v112
c0 8.83105 7.16895 16 16 16h32zM488 448c13.2461 0 24 -10.7539 24 -24v-128c0 -21.5 -26 -32 -41 -17l-35.7197 35.6797l-243.61 -243.68c-4.34668 -4.36133 -10.3652 -7.0625 -17.0029 -7.0625s-12.6504 2.70117 -16.9971 7.0625l-22.6699 22.6299
c-4.36133 4.34668 -7.0625 10.3652 -7.0625 17.0029c0 6.63867 2.70117 12.6504 7.0625 16.9971l243.73 243.64l-35.7305 35.7305c-15.0498 15.0898 -4.37012 41 17 41h128z" />
    <glyph glyph-name="scanner-touchscreen" unicode="&#xf48a;" horiz-adv-x="576" 
d="M400 352c8.7998 0 16 -7.2002 16 -16v-137.4c0 -4.19922 -1.7002 -8.2998 -4.7002 -11.2998l-27.2998 -27.2998v-176c0 -26.5 -21.5 -48 -48 -48h-256c-26.5 0 -48 21.5 -48 48v176l-27.2998 27.2998c-3 3 -4.7002 7.10059 -4.7002 11.2998v137.4
c0 8.7998 7.2002 16 16 16h384zM320 16v256c0 8.7998 -7.2002 16 -16 16h-192c-8.7998 0 -16 -7.2002 -16 -16v-256c0 -8.7998 7.2002 -16 16 -16h192c8.7998 0 16 7.2002 16 16zM256 440v-56h-64v56c0 4.40039 3.59961 8 8 8h48c4.40039 0 8 -3.59961 8 -8zM320 440v-56
h-32v56c0 4.40039 3.59961 8 8 8h16c4.40039 0 8 -3.59961 8 -8zM408 448c4.40039 0 8 -3.59961 8 -8v-56h-64v56c0 4.40039 3.59961 8 8 8h48zM568 448c4.40039 0 8 -3.59961 8 -8v-272c0 -4.40039 -3.59961 -8 -8 -8h-48c-4.40039 0 -8 3.59961 -8 8v272
c0 4.40039 3.59961 8 8 8h48zM472 448c4.40039 0 8 -3.59961 8 -8v-272c0 -4.40039 -3.59961 -8 -8 -8h-16c-4.40039 0 -8 3.59961 -8 8v272c0 4.40039 3.59961 8 8 8h16z" />
    <glyph glyph-name="hand-holding-usd" unicode="&#xf4c0;" horiz-adv-x="576" 
d="M271.06 303.7c-24.0596 6.39941 -43.4297 24.7002 -46.5693 47.7002c-4.33984 32 20.6201 59.3994 53.5098 63v17.5996c0 8.7998 7.82031 16 17.3701 16h17.3701c9.5498 0 17.3701 -7.2002 17.3701 -16v-17.7197c12.457 -1.28516 24.2842 -5.35938 34.5195 -11.5
c3.32227 -2.00098 5.52734 -5.64746 5.52734 -9.80469c0 -2.18945 -0.617188 -4.23633 -1.6875 -5.97559c-0.592773 -0.978516 -1.31836 -1.8457 -2.16992 -2.59961l-19 -17.5c-4.01953 -3.7002 -10.0693 -4.2002 -15.2998 -2
c-3.46289 1.4043 -7.2666 2.19336 -11.2305 2.19922h-35.5996c-5.03027 0 -9.12012 -3.7998 -9.12012 -8.39941c0.12207 -3.94727 2.91699 -7.23145 6.62988 -8.10059l54.2705 -14.2998c24.0996 -6.39941 43.4102 -24.7002 46.5596 -47.7002
c4.33984 -32 -20.5693 -59.3994 -53.5 -63v-17.5996c0 -8.7998 -7.83008 -16 -17.3799 -16h-17.3701c-9.54004 0 -17.3701 7.2002 -17.3701 16v17.7002c-12.4541 1.28516 -24.2773 5.35938 -34.5098 11.5c-3.33008 1.99609 -5.54199 5.64551 -5.54199 9.80762
c0 2.17188 0.607422 4.20312 1.66211 5.93262c0.617188 1.00098 1.36914 1.88867 2.25 2.65918l19 17.5c4.01953 3.7002 10.0596 4.2002 15.2998 2c3.45117 -1.39941 7.24121 -2.18848 11.1904 -2.19922h35.5996c5.03027 0 9.12012 3.7998 9.12012 8.39941
c-0.121094 3.94727 -2.91602 7.23145 -6.62988 8.10059zM565.27 119.9c6.5918 -5.86328 10.7656 -14.3916 10.7656 -23.8984c0 -10.1123 -4.70117 -19.1357 -12.0352 -25.002l-151.23 -121c-10.9443 -8.74512 -24.8633 -14 -39.9482 -14h-0.0517578h-356.77
c-8.83105 0 -16 7.16895 -16 16v96c0 8.83105 7.16895 16 16 16h55.4004l46.5 37.71c20.2197 16.4053 46.0596 26.2822 74.0996 26.29h160c17.6406 0 31.9668 -14.3066 32 -31.9404c0 -0.0410156 0.000976562 -0.0507812 0.000976562 -0.0917969
c0 -1.83008 -0.158203 -3.62402 -0.460938 -5.36816c-2.54004 -15.6992 -17.3496 -26.5996 -33.25 -26.5996h-78.29c-8.83105 0 -16 -7.16895 -16 -16s7.16895 -16 16 -16h118.27c0.0605469 0 0.161133 0.0234375 0.22168 0.0234375
c15.0459 0 28.8799 5.23242 39.7783 13.9766l92.4004 73.9004c12.4004 10 30.7998 10.6992 42.5996 0z" />
    <glyph glyph-name="drum" unicode="&#xf569;" 
d="M431.34 325.95c44.9004 -16.3398 80.6602 -42.7803 80.6602 -86.1006v-160.229c0 -30.2705 -27.5 -57.6797 -72 -77.8604v101.9c0 13.2461 -10.7539 24 -24 24s-24 -10.7539 -24 -24v-118.93c-33.0498 -9.11035 -71.0703 -15.0605 -112 -16.7305v103.61
c0 13.2461 -10.7539 24 -24 24s-24 -10.7539 -24 -24v-103.61c-40.9297 1.66992 -78.9502 7.62012 -112 16.7305v118.93c0 13.2461 -10.7539 24 -24 24s-24 -10.7539 -24 -24v-101.9c-44.5 20.1807 -72 47.5898 -72 77.8604v160.229c0 107.601 219.55 112.15 256 112.15
c15.2197 0 62.4297 -0.910156 112.19 -9.69043l110.06 71c2.53711 1.69238 5.59082 2.7041 8.86621 2.7041c5.55664 0 10.4551 -2.83887 13.3242 -7.14355l8.86914 -13.3105c1.69238 -2.53711 2.7041 -5.58984 2.7041 -8.86523
c0 -5.55664 -2.83887 -10.4561 -7.14355 -13.3242zM256 175.76c114.87 0 208 28.6904 208 64.0898c0 21.3105 -33.9102 40.1504 -85.8604 51.75l-118.64 -76.5195c-2.53711 -1.69141 -5.59082 -2.7041 -8.86621 -2.7041c-5.55664 0 -10.4551 2.83887 -13.3242 7.14355
l-8.86914 13.3105c-1.69434 2.53809 -2.70703 5.59277 -2.70703 8.87012c0 5.55371 2.83594 10.4502 7.13672 13.3193l72.8096 47c-15.9492 1.2002 -32.5293 1.91016 -49.6797 1.91016c-114.88 0 -208 -28.6797 -208 -64.0801c0 -35.3994 93.1201 -64.0898 208 -64.0898z
" />
    <glyph glyph-name="brain" unicode="&#xf5dc;" horiz-adv-x="576" 
d="M208 448c35.2998 0 64 -28.7002 64 -64v-376c0 -39.7998 -32.2002 -72 -72 -72c-31.7998 0 -58.4004 20.7002 -68 49.2002c-3.90039 -0.700195 -7.90039 -1.2002 -12 -1.2002c-39.7998 0 -72 32.2002 -72 72c0 4.7998 0.5 9.5 1.40039 14.0996
c-29 12 -49.4004 40.6006 -49.4004 73.9004c0 29.7002 16.2998 55.2998 40.2998 69.0996c-5.09961 10.6006 -8.2998 22.3008 -8.2998 34.9004c0 33.4004 20.5 62 49.7002 74c-1.10059 4.5 -1.7002 9.2002 -1.7002 14c0 35.2998 28.7002 64 64 64
c0.799805 0 1.40039 -0.200195 2.2002 -0.200195c7.09961 27.7002 31.8994 48.2002 61.7998 48.2002zM576 144c0 -33.2998 -20.4004 -61.9004 -49.4004 -73.9004c0.900391 -4.59961 1.40039 -9.2998 1.40039 -14.0996c0 -39.7998 -32.2002 -72 -72 -72
c-4.09961 0 -8.09961 0.5 -12 1.2002c-9.59961 -28.5 -36.2002 -49.2002 -68 -49.2002c-39.7998 0 -72 32.2002 -72 72v376c0 35.4004 28.7002 64 64 64c29.9004 0 54.7002 -20.5 61.7998 -48.2002c0.700195 0 1.40039 0.200195 2.2002 0.200195
c35.2998 0 64 -28.7002 64 -64c0 -4.7998 -0.700195 -9.5 -1.7002 -14c29.2002 -12 49.7002 -40.5996 49.7002 -74c0 -12.5996 -3.09961 -24.2998 -8.2998 -34.9004c24 -13.7998 40.2998 -39.3994 40.2998 -69.0996z" />
    <glyph glyph-name="directions" unicode="&#xf5eb;" 
d="M502.61 214.68c12.5195 -12.5293 12.5195 -32.8301 0 -45.3594l-223.931 -223.931c-12.5293 -12.5293 -32.8398 -12.5293 -45.3594 0l-223.931 223.931c-12.5195 12.5293 -12.5195 32.8301 0 45.3594l223.931 223.931c12.5293 12.5195 32.8398 12.5195 45.3594 0z
M401.63 202.12c3.42969 3.16992 3.42969 8.58984 0 11.7598l-84.21 77.7305c-5.12988 4.72949 -13.4297 1.08984 -13.4297 -5.87988v-53.7305h-112c-17.6699 0 -32 -14.3301 -32 -32v-80c0 -4.41992 3.58008 -8 8 -8h32c4.41992 0 8 3.58008 8 8v64h96v-53.7305
c0 -6.97949 8.30957 -10.6094 13.4297 -5.87988z" />
    <glyph glyph-name="location" unicode="&#xf601;" 
d="M496 224c8.83984 0 16 -7.16016 16 -16v-32c0 -8.83984 -7.16016 -16 -16 -16h-50.8799c-13.5098 -80.3398 -76.7803 -143.61 -157.12 -157.12v-50.8799c0 -8.83984 -7.16016 -16 -16 -16h-32c-8.83984 0 -16 7.16016 -16 16v50.8799
c-80.3398 13.5098 -143.61 76.7803 -157.12 157.12h-50.8799c-8.83984 0 -16 7.16016 -16 16v32c0 8.83984 7.16016 16 16 16h50.8799c13.5098 80.3398 76.7803 143.61 157.12 157.12v50.8799c0 8.83984 7.16016 16 16 16h32c8.83984 0 16 -7.16016 16 -16v-50.8799
c80.3398 -13.5098 143.61 -76.7803 157.12 -157.12h50.8799zM256 64c70.7002 0 128 57.3096 128 128s-57.2998 128 -128 128s-128 -57.3096 -128 -128s57.2998 -128 128 -128zM256 280c48.5996 0 88 -39.4004 88 -88s-39.4004 -88 -88 -88s-88 39.4004 -88 88
s39.4004 88 88 88z" />
    <glyph glyph-name="route-interstate" unicode="&#xf61b;" horiz-adv-x="480" 
d="M464.83 392.86c37.0098 -119.971 21.8496 -355.2 -224.83 -456.86c-246.68 101.66 -261.83 336.89 -224.82 456.87c3.61035 11.6895 14.9502 19.0996 26.1807 15.9502c18.2295 -5.12012 37.7393 -7.95996 58.0996 -7.95996c49.1201 0 93.6104 16.0693 126.17 42.1094
c4.19043 3.35059 9.28027 5.03027 14.3701 5.03027s10.1797 -1.67969 14.3799 -5.04004c32.5605 -26.04 77.0498 -42.1104 126.17 -42.1104c20.3604 0 39.8701 2.84082 58.1006 7.95996c11.2598 3.15039 22.5801 -4.29004 26.1797 -15.9492zM240 6.12988
c124.73 60.9404 167.99 162.311 175.25 249.87h-350.49c7.25 -87.5596 50.5098 -188.93 175.24 -249.87z" />
    <glyph glyph-name="calculator-alt" unicode="&#xf64c;" 
d="M192 160c17.6699 0 32 -14.3301 32 -32v-160c0 -17.6699 -14.3301 -32 -32 -32h-160c-17.6699 0 -32 14.3301 -32 32v160c0 17.6699 14.3301 32 32 32h160zM162.91 19.71l-28.2803 28.29l28.2803 28.2998c3.12012 3.12012 3.12012 8.19043 0 11.3105l-11.3105 11.3096
c-3.11914 3.12012 -8.18945 3.12012 -11.3096 0l-28.29 -28.29l-28.2998 28.2803c-3.12012 3.12012 -8.19043 3.12012 -11.3105 0l-11.3096 -11.3105c-3.12012 -3.11914 -3.12012 -8.18945 0 -11.3096l28.29 -28.29l-28.2803 -28.29
c-3.12012 -3.12012 -3.12012 -8.19043 0 -11.3096l11.3105 -11.3203c3.11914 -3.12012 8.18945 -3.12012 11.3096 0l28.29 28.29l28.29 -28.2803c3.12012 -3.12012 8.19043 -3.12012 11.3096 0l11.3105 11.3105c3.12012 3.11914 3.12012 8.18945 0 11.3096zM480 448
c17.6699 0 32 -14.3301 32 -32v-160c0 -17.6699 -14.3301 -32 -32 -32h-160c-17.6699 0 -32 14.3301 -32 32v160c0 17.6699 14.3301 32 32 32h160zM464 328v16c0 4.41992 -3.58008 8 -8 8h-40v40c0 4.41992 -3.58008 8 -8 8h-16c-4.41992 0 -8 -3.58008 -8 -8v-40h-40
c-4.41992 0 -8 -3.58008 -8 -8v-16c0 -4.41992 3.58008 -8 8 -8h40v-40c0 -4.41992 3.58008 -8 8 -8h16c4.41992 0 8 3.58008 8 8v40h40c4.41992 0 8 3.58008 8 8zM480 160c17.6699 0 32 -14.3301 32 -32v-160c0 -17.6699 -14.3301 -32 -32 -32h-160
c-17.6699 0 -32 14.3301 -32 32v160c0 17.6699 14.3301 32 32 32h160zM464 8v16c0 4.41992 -3.58008 8 -8 8h-112c-4.41992 0 -8 -3.58008 -8 -8v-16c0 -4.41992 3.58008 -8 8 -8h112c4.41992 0 8 3.58008 8 8zM464 72v16c0 4.41992 -3.58008 8 -8 8h-112
c-4.41992 0 -8 -3.58008 -8 -8v-16c0 -4.41992 3.58008 -8 8 -8h112c4.41992 0 8 3.58008 8 8zM192 448c17.6699 0 32 -14.3301 32 -32v-160c0 -17.6699 -14.3301 -32 -32 -32h-160c-17.6699 0 -32 14.3301 -32 32v160c0 17.6699 14.3301 32 32 32h160zM176 328v16
c0 4.41992 -3.58008 8 -8 8h-112c-4.41992 0 -8 -3.58008 -8 -8v-16c0 -4.41992 3.58008 -8 8 -8h112c4.41992 0 8 3.58008 8 8z" />
    <glyph glyph-name="gopuram" unicode="&#xf664;" 
d="M496 96c8.7998 0 16 -7.2002 16 -16v-128c0 -8.7998 -7.2002 -16 -16 -16h-80v160h-32v128h-32v96h-32v-96h32v-128h32v-160h-80v80c0 8.7998 -7.2002 16 -16 16h-64c-8.7998 0 -16 -7.2002 -16 -16v-80h-80v160h32v128h32v96h-32v-96h-32v-128h-32v-160h-80
c-8.7998 0 -16 7.2002 -16 16v128c0 8.7998 7.2002 16 16 16h16v112c0 8.7998 7.2002 16 16 16h16v80c0 8.7998 7.2002 16 16 16h16v112c0 8.7998 7.2002 16 16 16s16 -7.2002 16 -16v-16h64v16c0 8.7998 7.2002 16 16 16s16 -7.2002 16 -16v-16h64v16
c0 8.7998 7.2002 16 16 16s16 -7.2002 16 -16v-16h64v16c0 8.7998 7.2002 16 16 16s16 -7.2002 16 -16v-112h16c8.7998 0 16 -7.2002 16 -16v-80h16c8.7998 0 16 -7.2002 16 -16v-112h16zM232 272v-48h48v48c0 8.7998 -7.2002 16 -16 16h-16c-8.7998 0 -16 -7.2002 -16 -16z
M288 96v64c0 8.7998 -7.2002 16 -16 16h-32c-8.7998 0 -16 -7.2002 -16 -16v-64h64z" />
    <glyph glyph-name="journal-whills" unicode="&#xf66a;" horiz-adv-x="448" 
d="M438.406 70.4062c-3.20312 -12.8125 -3.20312 -57.6094 0 -73.6094c6.39062 -6.39062 9.58887 -12.792 9.59375 -19.2031v-16c0 -16 -12.7969 -25.5938 -25.5938 -25.5938h-326.406c-54.4062 0 -96 41.5938 -96 96v320c0 54.4062 41.5938 96 96 96h326.406
c16 0 25.5938 -9.59375 25.5938 -25.5938v-332.812c0 -9.59375 -3.19824 -15.9893 -9.59375 -19.1875zM380.797 64h-284.797c-16 0 -32 -12.7969 -32 -32s12.7969 -32 32 -32h284.797v64zM128.016 271.984c0 -0.515625 0.140625 -0.984375 0.140625 -1.5l37.1094 -32.4688
c1.67383 -1.4668 2.73047 -3.62012 2.73047 -6.01758c0 -4.41309 -3.58398 -7.99414 -7.99609 -7.99805h-0.015625c-1.97363 0.0996094 -3.79785 0.828125 -5.25 1.98438l-23.5938 20.6406c11.5469 -49.5781 55.7656 -86.625 108.859 -86.625
s97.3125 37.0469 108.875 86.625l-23.5938 -20.6406c-1.40918 -1.22461 -3.25391 -1.96875 -5.26562 -1.96875h-0.015625c-2.34766 0.129883 -4.46777 1.14551 -6.01562 2.71875c-1.1543 1.45996 -1.88184 3.28809 -1.98438 5.26562
c0.128906 2.35059 1.15137 4.47266 2.73438 6.01562l37.1094 32.4688c0.015625 0.53125 0.15625 1 0.15625 1.51562c0 11.0469 -2.09375 21.5156 -5.0625 31.5938l-21.2656 -21.25c-1.44922 -1.4502 -3.45117 -2.34863 -5.66211 -2.34863
c-4.41797 0 -8.00488 3.58691 -8.00488 8.00488c0 2.20605 0.892578 4.20801 2.33887 5.65625l26.4219 26.4062c-10.0342 20.8945 -26.1904 38.0244 -46.3594 49.2656c6.05371 -9.67676 9.55469 -21.1123 9.55469 -33.3584c0 -19.916 -9.17383 -37.7295 -23.6172 -49.2822
c9.69336 -10.0459 15.6592 -23.7119 15.6592 -38.7598c0 -26.875 -19.0703 -49.3535 -44.3779 -54.6621l-1.42188 34.2812l12.6719 -8.625c0.635742 -0.432617 1.40234 -0.685547 2.22852 -0.685547c0.00585938 0 0.015625 -0.00195312 0.0214844 -0.00195312h0.0263672
c2.19727 0 3.98047 1.7832 3.98047 3.98047c0 0.748047 -0.209961 1.45215 -0.569336 2.05078l-8.53125 14.3125l17.9062 3.71875c1.81738 0.379883 3.18457 1.99219 3.18457 3.92188s-1.36719 3.54199 -3.18457 3.92188l-17.9062 3.71875l8.53125 14.3125
c0.359375 0.598633 0.566406 1.29883 0.566406 2.04688c0 2.19629 -1.7832 3.98047 -3.98047 3.98047c-0.00878906 0 -0.0146484 0.00390625 -0.0234375 0.00390625c-0.817383 -0.0322266 -1.58984 -0.275391 -2.25 -0.671875l-14.1875 -9.65625l-4.6875 112.297
c-0.09375 2.12695 -1.84961 3.8252 -4 3.8252s-3.90625 -1.69824 -4 -3.8252l-4.625 -110.812l-12 8.15625c-0.639648 0.43457 -1.41211 0.688477 -2.24316 0.688477c-2.20996 0 -4.00293 -1.79395 -4.00293 -4.00391c0 -0.745117 0.203125 -1.44629 0.558594 -2.04395
l8.53125 -14.3125l-17.9062 -3.71875c-1.81738 -0.375977 -3.18457 -1.98633 -3.18457 -3.91406s1.36719 -3.53809 3.18457 -3.91406l17.9062 -3.73438l-8.53125 -14.2969c-0.330078 -0.611328 -0.532227 -1.31152 -0.5625 -2.04688
c0.0615234 -1.12109 0.525391 -2.14062 1.25 -2.90625c0.717773 -0.677734 1.68652 -1.09277 2.75 -1.09375c0.830078 0.00390625 1.60645 0.257812 2.25 0.6875l10.3594 7.04688l-1.35938 -32.7188c-25.3086 5.31836 -44.335 27.79 -44.335 54.6709
c0 15.0518 5.92285 28.7324 15.6162 38.7822c-14.4434 11.5508 -23.7012 29.3193 -23.7012 49.2334c0 12.2559 3.59082 23.7412 9.6543 33.4229c-20.1709 -11.2451 -36.3311 -28.374 -46.375 -49.2656l26.4219 -26.4219c1.43945 -1.44727 2.33008 -3.44043 2.33008 -5.64062
c0 -4.41504 -3.58496 -8 -7.99902 -8c-2.2002 0 -4.19629 0.888672 -5.64355 2.32812l-21.2656 21.2656c-2.98438 -10.0938 -5.07812 -20.5625 -5.0625 -31.625z" />
    <glyph glyph-name="shredder" unicode="&#xf68a;" 
d="M232 -48v80h48v-80c0 -8.83984 -7.16016 -16 -16 -16h-16c-8.83984 0 -16 7.16016 -16 16zM136 -48v80h48v-80c0 -8.83984 -7.16016 -16 -16 -16h-16c-8.83984 0 -16 7.16016 -16 16zM40 -48v80h48v-80c0 -8.83984 -7.16016 -16 -16 -16h-16
c-8.83984 0 -16 7.16016 -16 16zM328 -48v80h48v-80c0 -8.83984 -7.16016 -16 -16 -16h-16c-8.83984 0 -16 7.16016 -16 16zM448 256c35.3496 0 64 -28.6504 64 -64v-112c0 -8.83984 -7.16016 -16 -16 -16h-480c-8.83984 0 -16 7.16016 -16 16v112
c0 35.3496 28.6504 64 64 64v160c0 17.6699 14.3301 32 32 32h274.74c8.49023 0 16.6299 -3.37012 22.6299 -9.37012l45.2598 -45.25c6 -6.00977 9.37012 -14.1396 9.37012 -22.6299v-114.75zM384 224v96h-48c-8.83984 0 -16 7.16016 -16 16v48h-192v-160h256zM432 152
c13.25 0 24 10.75 24 24c0 13.2598 -10.75 24 -24 24s-24 -10.7402 -24 -24c0 -13.25 10.75 -24 24 -24zM424 -48v80h48v-80c0 -8.83984 -7.16016 -16 -16 -16h-16c-8.83984 0 -16 7.16016 -16 16z" />
    <glyph glyph-name="chair" unicode="&#xf6c0;" horiz-adv-x="448" 
d="M112 320v-128h-48v128c0 70.7002 57.2998 128 128 128h64c70.7002 0 128 -57.2998 128 -128v-128h-48v128c0 29.5 -16.2002 55 -40 68.9004v-196.9h-48v208h-48v-208h-48v196.9c-23.7998 -13.9004 -40 -39.4004 -40 -68.9004zM446.3 106.1
c6.90039 -20.6992 -8.5 -42.0996 -30.2998 -42.0996v-112c0 -8.7998 -7.2002 -16 -16 -16h-32c-8.7998 0 -16 7.2002 -16 16v112h-256v-112c0 -8.7998 -7.2002 -16 -16 -16h-32c-8.7998 0 -16 7.2002 -16 16v112c-21.7998 0 -37.2002 21.4004 -30.4004 42.0996l10.7002 32
c4.40039 13.1006 16.6006 21.9004 30.4004 21.9004h362.5c13.7998 0 26 -8.7998 30.3994 -21.9004z" />
    <glyph glyph-name="chair-office" unicode="&#xf6c1;" horiz-adv-x="448" 
d="M64 224c0 -17.6699 -14.3301 -32 -32 -32s-32 14.3301 -32 32v64c0 17.6699 14.3301 32 32 32s32 -14.3301 32 -32v-64zM416 320c17.6699 0 32 -14.3301 32 -32v-64c0 -17.6699 -14.3301 -32 -32 -32s-32 14.3301 -32 32v64c0 17.6699 14.3301 32 32 32zM352 384v-192
h-256v192c0 35.3496 28.6504 64 64 64h128c35.3496 0 64 -28.6504 64 -64zM403.67 138.12l10.6602 -32c6.91016 -20.7197 -8.52051 -42.1201 -30.3604 -42.1201h-127.97v-67.3604c28.2598 -6.00977 50.9902 -19.6895 61.8496 -37.21
c6.41992 -10.3398 -2.40918 -23.4297 -15.0195 -23.4297h-157.66c-12.6104 0 -21.4297 13.0898 -15.0195 23.4297c10.8594 17.5205 33.5801 31.2002 61.8496 37.21v67.3604h-127.97c-21.8506 0 -37.2705 21.4004 -30.3701 42.1201l10.6699 32
c4.36035 13.0703 16.5898 21.8799 30.3604 21.8799h298.619l-0.00292969 0.00488281c14.127 0 26.127 -9.17383 30.3633 -21.8848z" />
    <glyph glyph-name="flame" unicode="&#xf6df;" horiz-adv-x="384" 
d="M192 448c111.78 -100.86 192 -220.6 192 -300.55c0 -124.5 -78.9502 -211.45 -192 -211.45s-192 86.9502 -192 211.45c0 79.6299 79.7002 199.22 192 300.55zM192 0c70.5801 0 128 52.8896 127.99 117.87c0 59.1699 -34.5205 88.6699 -67.9004 117.21
c-26.5195 22.6602 -51.5703 44.0801 -51.5703 77.6299c0 4.54004 -3.75977 6.25 -5.37988 6.78027c-3.09961 0.990234 -7.68945 0.759766 -10.5801 -3.16992c-73.21 -99.5605 39.4307 -92.3301 39.4307 -164.33c0 -30.9307 -25.0703 -56 -56 -56
c-30.9307 0 -56 25.0693 -56 56v40c0 0.00488281 0.000976562 0.0107422 0.000976562 0.015625c0 2.20312 -0.895508 4.19922 -2.34082 5.64453c-3.12012 3.11914 -8.19043 3.11914 -11.3105 0c-8.5 -8.25 -34.3398 -35.6309 -34.3398 -79.7607
c0 -65 57.4199 -117.89 128 -117.89z" />
    <glyph glyph-name="flask-poison" unicode="&#xf6e0;" horiz-adv-x="416" 
d="M80 400v32c0 8.83984 7.16016 16 16 16h224c8.83984 0 16 -7.16016 16 -16v-32c0 -8.83984 -7.16016 -16 -16 -16h-224c-8.83984 0 -16 7.16016 -16 16zM168 160c13.25 0 24 -10.7402 24 -24c0 -13.25 -10.75 -24 -24 -24s-24 10.75 -24 24c0 13.2598 10.75 24 24 24z
M415.95 91.3301c-1.14062 -51.6797 -21.1504 -98.7002 -53.3906 -134.48c-12.0898 -13.4092 -29.5195 -20.8496 -47.5791 -20.8496h-214.04c-17.7803 0 -35.0508 7.12988 -47 20.2998c-33.5107 36.9102 -53.9404 85.9102 -53.9404 139.7
c0 80.1201 45.6104 149.15 112 183.88v72.1201h192v-73.0498c67.1904 -36.1299 113.71 -107.67 111.95 -187.62zM320 136c0 48.5996 -50.1396 88 -112 88s-112 -39.4004 -112 -88c0 -29.8701 19.04 -56.1699 48 -72.0801v-31.9199c0 -8.83984 7.16016 -16 16 -16h96
c8.83984 0 16 7.16016 16 16v31.9199c28.96 15.9102 48 42.21 48 72.0801zM248 160c13.25 0 24 -10.7402 24 -24c0 -13.25 -10.75 -24 -24 -24s-24 10.75 -24 24c0 13.2598 10.75 24 24 24z" />
    <glyph glyph-name="flask-potion" unicode="&#xf6e1;" horiz-adv-x="416" 
d="M415.95 91.3301c-1.14062 -51.6797 -21.1504 -98.7002 -53.3906 -134.48c-12.0898 -13.4092 -29.5195 -20.8496 -47.5791 -20.8496h-214.04c-17.7803 0 -35.0508 7.12988 -47 20.2998c-33.5107 36.9102 -53.9404 85.9102 -53.9404 139.7
c0 80.1201 45.6104 149.15 112 183.88v72.1201h64v-110.86c-20.21 -10.5801 -100.33 -38.7393 -110.85 -128.56c65.8496 32.9199 127.64 31.0303 181.8 3.9502c44.9902 -22.5 81.3193 -20.5303 104.85 -20.5303c-0.269531 91.8398 -75.3301 125.09 -111.79 144.7v111.3h64
v-73.0498c67.1807 -36.1299 113.7 -107.67 111.94 -187.62zM96 384c-8.83984 0 -16 7.16016 -16 16v32c0 8.83984 7.16016 16 16 16h224c8.83984 0 16 -7.16016 16 -16v-32c0 -8.83984 -7.16016 -16 -16 -16h-224z" />
    <glyph glyph-name="hat-wizard" unicode="&#xf6e8;" 
d="M496 0c8.83984 0 16 -7.16016 16 -16v-32c0 -8.83984 -7.16016 -16 -16 -16h-480c-8.83984 0 -16 7.16016 -16 16v32c0 8.83984 7.16016 16 16 16h480zM192 64l16 -32h-144l110.96 249.66c11.1211 25.0264 29.8379 45.6514 53.46 59.1494l187.58 107.19l-56.2998 -168.92
c-2.12207 -6.35938 -3.25781 -13.2188 -3.25781 -20.2881c0 -8.93164 1.83496 -17.4375 5.14746 -25.1621l86.4102 -201.63h-208l16 32l64 32l-64 32l-32 64l-32 -64l-64 -32zM256 288l-32 -16l32 -16l16 -32l16 32l32 16l-32 16l-16 32z" />
    <glyph glyph-name="mandolin" unicode="&#xf6f9;" 
d="M507.31 397.33c2.90137 -2.89648 4.68457 -6.91895 4.68457 -11.3379c0 -3.11523 -0.892578 -6.02246 -2.43457 -8.48242l-40.0693 -64c-4.28809 -6.84863 -11.0869 -11.9248 -19.1104 -14l-56.1104 -14.5098l-74.4697 -74.4502
c1.52051 -184.17 -48.7998 -228.55 -64.0801 -243.81c-46.79 -46.8105 -150.38 -39.5605 -207.439 17.5293c-57.0605 57.0908 -64.3506 160.66 -17.54 207.45c15.2598 15.2803 59.6396 65.6104 243.8 64.0898l74.46 74.46l14.5 56.1309
c2.0752 8.02344 7.15137 14.8223 14 19.1094l64 40.0703c2.45801 1.53906 5.38281 2.44238 8.49512 2.44238c4.41699 0 8.41797 -1.79395 11.3145 -4.69238zM208 96c26.4922 0 48 21.5078 48 48s-21.5078 48 -48 48s-48 -21.5078 -48 -48s21.5078 -48 48 -48z" />
    <glyph glyph-name="running" unicode="&#xf70c;" horiz-adv-x="416" 
d="M272 352c-26.5098 0 -48 21.4902 -48 48s21.4902 48 48 48s48 -21.4902 48 -48s-21.4902 -48 -48 -48zM113.69 130.53c7.92969 -17.2402 20.6699 -32.3799 37.9893 -42.6104l10.6699 -6.2998l-8.79004 -20.5205c-7.5293 -17.6494 -24.8594 -29.0898 -44.1094 -29.0898
h-77.4502c-17.6699 0 -32 14.3301 -32 32s14.3301 32 32 32h66.8896zM384 224.01c17.6699 0 32 -14.3193 32 -31.9902c0 -17.6699 -14.3301 -32 -32 -32h-53.9902c-18.1895 0 -35.1094 10.5508 -43.1094 26.8906l-20.2705 41.4297l-31.3096 -78.2803l61.2393 -36.1396
c18.75 -11.3096 27.5508 -33.6201 21.6406 -54.3896l-31.6406 -101.061c-4.29004 -13.6797 -16.9092 -22.4502 -30.5195 -22.4502c-3.16992 0 -6.38965 0.480469 -9.58008 1.48047c-16.8604 5.28027 -26.25 23.2305 -20.9697 40.0898l27.4697 87.7305l-84.9795 50.1699
c-27.6104 16.2998 -38.9209 50.8301 -26.3008 80.3096l37.46 87.3906l-14.6992 4.36914c-7.83008 1.86035 -17.6006 -0.25 -25.2705 -6.13965l-39.6895 -30.4102c-14.0205 -10.7402 -34.0908 -8.10938 -44.8604 5.91992c-10.7705 14.0303 -8.11035 34.1104 5.91992 44.8604
l39.6699 30.4102c23.0703 17.6895 52.54 23.9395 80.8398 17.1396l71.0801 -21.1396c26.3301 -6.70996 49.2803 -25.3906 61.7803 -50.9404l26.0596 -53.25h44.0303z" />
    <glyph glyph-name="guitar" unicode="&#xf7a6;" 
d="M502.63 409c5.77344 -5.79004 9.34473 -13.7852 9.34473 -22.5996c0 -8.8291 -3.58398 -16.8281 -9.375 -22.6201l-46.3301 -46.3203c-3.82617 -3.83691 -8.53223 -6.78125 -13.7891 -8.53027l-36.4805 -12.1602l-76.2402 -76.2393
c8.79004 -12.2002 15.7705 -25.5605 19.1602 -40.2002c7.74023 -33.3896 0.870117 -66.8701 -22 -89.75c-9.26367 -9.2207 -20.71 -16.2314 -33.4795 -20.25c-18.54 -6.00977 -32.6709 -23.29 -34.4307 -42.1396c-2.29004 -23.8105 -11.4502 -45.8301 -28.4502 -62.71
c-45.5596 -45.4805 -127.5 -37.3809 -182.979 18.0693c-55.4805 55.4502 -63.6904 137.45 -18.0498 182.96c16.8799 16.9902 38.9102 26.1699 62.6094 28.4404c18.9404 1.76953 36.1504 15.8994 42.1504 34.46c4.01172 12.7686 11.0195 24.2119 20.2402 33.4697
c22.8799 22.8799 56.4297 29.7803 89.8799 22c14.5996 -3.39941 27.9395 -10.3799 40.0996 -19.1396l76.2598 76.2598l12.1602 36.5098c1.74902 5.25781 4.69336 9.96387 8.53027 13.79l46.2803 46.3301c5.79199 5.79395 13.8018 9.37988 22.6338 9.37988
s16.833 -3.58594 22.626 -9.37988zM208 96c26.4922 0 48 21.5078 48 48s-21.5078 48 -48 48s-48 -21.5078 -48 -48s21.5078 -48 48 -48z" />
    <glyph glyph-name="print-search" unicode="&#xf81a;" horiz-adv-x="640" 
d="M128 0h225c26.6299 -19.8398 59.2998 -32 95 -32c0 -17.6611 -14.3389 -32 -32 -32h-320c-17.6611 0 -32 14.3389 -32 32v96h-48c-8.83105 0 -16 7.16895 -16 16v112c0 35.3223 28.6777 64 64 64v160c0 17.6611 14.3389 32 32 32h274.74
c8.8291 0 16.8379 -3.5791 22.6299 -9.37012l45.2598 -45.25c5.79102 -5.79199 9.37012 -13.8008 9.37012 -22.6299v-82.75c-22.7207 -0.0263672 -44.458 -4.91699 -64 -13.5596v45.5596h-48c-8.83105 0 -16 7.16895 -16 16v48h-192v-160h192.81
c-20.2998 -26.8203 -32.8096 -59.8398 -32.8096 -96c0.00390625 -10.999 1.11621 -21.6211 3.23047 -32h-163.23v-96zM635.31 -14.0596c2.89746 -2.89648 4.69043 -6.90137 4.69043 -11.3174s-1.79297 -8.41699 -4.69043 -11.3135l-22.6191 -22.6191
c-2.89648 -2.89746 -6.90137 -4.69043 -11.3174 -4.69043s-8.41699 1.79297 -11.3135 4.69043l-77.4092 77.4199c-19.04 -11.2305 -40.9502 -18.1104 -64.6504 -18.1104c-70.6455 0 -128 57.3545 -128 128s57.3545 128 128 128s128 -57.3545 128 -128
c0 -23.7002 -6.87988 -45.6504 -18.0996 -64.6504zM448 64c35.3223 0 64 28.6777 64 64s-28.6777 64 -64 64s-64 -28.6777 -64 -64s28.6777 -64 64 -64z" />
    <glyph glyph-name="album" unicode="&#xf89f;" horiz-adv-x="448" 
d="M224 224c17.6611 0 32 -14.3389 32 -32s-14.3389 -32 -32 -32s-32 14.3389 -32 32s14.3389 32 32 32zM416 416c17.6611 0 32 -14.3389 32 -32v-384c0 -17.6611 -14.3389 -32 -32 -32h-384c-17.6611 0 -32 14.3389 -32 32v384c0 17.6611 14.3389 32 32 32h384zM224 32
c88.3066 0 160 71.6934 160 160s-71.6934 160 -160 160s-160 -71.6934 -160 -160s71.6934 -160 160 -160z" />
    <glyph glyph-name="album-collection" unicode="&#xf8a0;" 
d="M496 344v-24h-480v24c0 13.2461 10.7539 24 24 24h432c13.2461 0 24 -10.7539 24 -24zM480 424v-24h-448v24c0 13.2461 10.7539 24 24 24h400c13.2461 0 24 -10.7539 24 -24zM256 122.35c16.6396 0 30.0098 -10.0498 29.8701 -22.0898
s-13.5098 -21.7197 -29.8701 -21.7197s-29.7197 9.55957 -29.8604 21.7197c-0.139648 12.1602 13.2305 22.0898 29.8604 22.0898zM480 288c17.6611 0 32.0029 -14.3066 32.0029 -31.9688c0 -0.988281 -0.0449219 -1.96582 -0.132812 -2.93164l-26.1904 -288
c-1.48145 -16.2861 -15.1904 -29.0957 -31.8594 -29.0996h-395.641c-16.6689 0.00390625 -30.3779 12.8135 -31.8594 29.0996l-26.1904 288c-0.0878906 0.96582 -0.129883 1.91211 -0.129883 2.90039c0 17.6611 14.3389 32 32 32h448zM256 -24.8896
c94.2598 0 174.39 54.5195 179.21 125.149c5.08008 74.6406 -75.0303 138.34 -179.21 138.34s-184.29 -63.6992 -179.21 -138.34c4.82031 -70.6201 84.9502 -125.149 179.21 -125.149z" />
    <glyph glyph-name="amp-guitar" unicode="&#xf8a1;" 
d="M120 224c-13.2461 0 -24 10.7539 -24 24s10.7539 24 24 24s24 -10.7539 24 -24s-10.7539 -24 -24 -24zM392 224c-13.2461 0 -24 10.7539 -24 24s10.7539 24 24 24s24 -10.7539 24 -24s-10.7539 -24 -24 -24zM464 368c26.4922 0 48 -21.5078 48 -48v-336
c0 -26.4922 -21.5078 -48 -48 -48h-416c-26.4922 0 -48 21.5078 -48 48v336c0 26.4922 21.5078 48 48 48h61.5c24.75 27.29 80.9902 80 146.5 80s121.75 -52.71 146.5 -80h61.5zM256 400c-26.9004 0 -54 -14.7695 -76.25 -32h152.5c-22.25 17.21 -49.3496 32 -76.25 32z
M96 48c8.83105 0 16 7.16895 16 16s-7.16895 16 -16 16s-16 -7.16895 -16 -16s7.16895 -16 16 -16zM128 0c8.83105 0 16 7.16895 16 16s-7.16895 16 -16 16s-16 -7.16895 -16 -16s7.16895 -16 16 -16zM112 112c0 -8.83105 7.16895 -16 16 -16s16 7.16895 16 16
s-7.16895 16 -16 16s-16 -7.16895 -16 -16zM160 48c8.83105 0 16 7.16895 16 16s-7.16895 16 -16 16s-16 -7.16895 -16 -16s7.16895 -16 16 -16zM192 0c8.83105 0 16 7.16895 16 16s-7.16895 16 -16 16s-16 -7.16895 -16 -16s7.16895 -16 16 -16zM176 112
c0 -8.83105 7.16895 -16 16 -16s16 7.16895 16 16s-7.16895 16 -16 16s-16 -7.16895 -16 -16zM224 48c8.83105 0 16 7.16895 16 16s-7.16895 16 -16 16s-16 -7.16895 -16 -16s7.16895 -16 16 -16zM256 0c8.83105 0 16 7.16895 16 16s-7.16895 16 -16 16
s-16 -7.16895 -16 -16s7.16895 -16 16 -16zM240 112c0 -8.83105 7.16895 -16 16 -16s16 7.16895 16 16s-7.16895 16 -16 16s-16 -7.16895 -16 -16zM288 48c8.83105 0 16 7.16895 16 16s-7.16895 16 -16 16s-16 -7.16895 -16 -16s7.16895 -16 16 -16zM320 0
c8.83105 0 16 7.16895 16 16s-7.16895 16 -16 16s-16 -7.16895 -16 -16s7.16895 -16 16 -16zM304 112c0 -8.83105 7.16895 -16 16 -16s16 7.16895 16 16s-7.16895 16 -16 16s-16 -7.16895 -16 -16zM352 48c8.83105 0 16 7.16895 16 16s-7.16895 16 -16 16
s-16 -7.16895 -16 -16s7.16895 -16 16 -16zM384 0c8.83105 0 16 7.16895 16 16s-7.16895 16 -16 16s-16 -7.16895 -16 -16s7.16895 -16 16 -16zM368 112c0 -8.83105 7.16895 -16 16 -16s16 7.16895 16 16s-7.16895 16 -16 16s-16 -7.16895 -16 -16zM416 48
c8.83105 0 16 7.16895 16 16s-7.16895 16 -16 16s-16 -7.16895 -16 -16s7.16895 -16 16 -16zM448 192v112h-384v-112h384zM200 224c-13.2461 0 -24 10.7539 -24 24s10.7539 24 24 24s24 -10.7539 24 -24s-10.7539 -24 -24 -24zM312 224c-13.2461 0 -24 10.7539 -24 24
s10.7539 24 24 24s24 -10.7539 24 -24s-10.7539 -24 -24 -24z" />
    <glyph glyph-name="badge-sheriff" unicode="&#xf8a2;" 
d="M440 128c22.0771 0 39.9697 -17.9238 39.9697 -40s-17.9229 -40 -40 -40c-19.25 0 -34.5693 13.8799 -38.3799 32h-79l-43.1494 -72.4502c9.7998 -7.29004 16.5596 -18.3994 16.5596 -31.5498c0 -22.0762 -17.9238 -40 -40 -40s-40 17.9238 -40 40
c0 13.0898 6.7002 24.1602 16.4102 31.4502l-43.1504 72.5498h-78.8799c-3.80957 -18.1201 -19.1299 -32 -38.3799 -32c-22.0762 0 -40 17.9238 -40 40s17.9238 40 40 40c4 0 7.59961 -1.17969 11.2402 -2.26953l39.46 66.21l-39.46 66.3193
c-3.62988 -1.08008 -7.20996 -2.25977 -11.21 -2.25977c-22.0771 0 -40 17.9238 -40 40s17.9229 40 40 40c19.25 0 34.5693 -13.8799 38.3799 -32h79l43.1494 72.4502c-9.7998 7.29004 -16.5596 18.3994 -16.5596 31.5498c0 22.0762 17.9238 40 40 40s40 -17.9238 40 -40
c0 -13.0898 -6.7002 -24.1602 -16.4102 -31.4502l43.1504 -72.5498h78.8799c3.80957 18.1201 19.1299 32 38.3799 32c22.0762 0 40 -17.9238 40 -40s-17.9238 -40 -40 -40c-4 0 -7.59961 1.17969 -11.2402 2.26953l-39.4297 -66.21l39.46 -66.3193
c3.62988 1.08008 7.20996 2.25977 11.21 2.25977zM256 128c35.3223 0 64 28.6777 64 64s-28.6777 64 -64 64s-64 -28.6777 -64 -64s28.6777 -64 64 -64z" />
    <glyph glyph-name="banjo" unicode="&#xf8a3;" 
d="M502.63 409c5.76465 -5.78809 9.3291 -13.7783 9.3291 -22.585c0 -8.81641 -3.57324 -16.8047 -9.34863 -22.5947l-46.3203 -46.3105c-3.8291 -3.83398 -8.53516 -6.77637 -13.79 -8.5293l-36.3496 -12.1104l-74.8809 -74.8799
c13.4502 -19.9102 22.1709 -43.04 26.0703 -67.7803h0.459961c14.4492 0 26.1807 -11.7305 26.1807 -26.1797s-11.7314 -26.1807 -26.1807 -26.1807h-0.459961c-4.12402 -26.6143 -14.6592 -51.4629 -29.8398 -72.3398l0.230469 -0.219727
c5.13965 -4.78125 8.34863 -11.6104 8.34863 -19.1768c0 -14.4492 -11.7305 -26.1797 -26.1797 -26.1797c-7.56641 0 -14.3877 3.2168 -19.1689 8.35645l-0.230469 0.229492c-20.8721 -15.1699 -45.7148 -25.6973 -72.3203 -29.8193v-0.459961
c0 -14.4492 -11.7305 -26.1807 -26.1797 -26.1807s-26.1797 11.7314 -26.1797 26.1807v0.459961c-26.6055 4.12207 -51.4482 14.6494 -72.3203 29.8193l-0.230469 -0.229492c-4.78125 -5.13965 -11.6094 -8.34961 -19.1758 -8.34961
c-14.4492 0 -26.1807 11.7314 -26.1807 26.1807c0 7.56641 3.2168 14.3877 8.35645 19.1689l0.230469 0.219727c-15.1807 20.877 -25.7158 45.7256 -29.8398 72.3398h-0.459961c-14.4492 0 -26.1807 11.7314 -26.1807 26.1807s11.7314 26.1797 26.1807 26.1797h0.459961
c4.12402 26.6143 14.6592 51.4639 29.8398 72.3398l-0.230469 0.219727c-4.34863 4.67578 -7.00293 10.9482 -7.00293 17.8311c0 14.4492 11.7305 26.1807 26.1797 26.1807c6.88281 0 13.1484 -2.66211 17.8232 -7.01172l0.230469 -0.229492
c20.8613 15.165 45.6895 25.6924 72.2803 29.8203v0.459961c0 14.4492 11.7305 26.1797 26.1797 26.1797s26.1797 -11.7305 26.1797 -26.1797v-0.459961c24.7803 -3.91016 47.9307 -12.6602 67.8604 -26.1504l74.8096 74.7197l12.1904 36.5898
c1.73828 5.25098 4.66504 9.95703 8.48047 13.79l46.3096 46.3203c5.79297 5.79395 13.8027 9.37988 22.6348 9.37988s16.833 -3.58594 22.625 -9.37988zM192 16c61.7842 0.0664062 111.934 50.2158 112 112c0 61.8145 -50.1855 112 -112 112s-112 -50.1855 -112 -112
s50.1855 -112 112 -112zM153 141.65l52.6201 -52.6807c1.4502 -1.44824 2.34766 -3.45117 2.34766 -5.66113c0 -2.20898 -0.897461 -4.20996 -2.34766 -5.6582l-11.3105 -11.3105c-1.44727 -1.44727 -3.44922 -2.3418 -5.65527 -2.3418
c-2.20703 0 -4.20605 0.894531 -5.6543 2.3418l-52.6299 52.6904c-1.44727 1.44727 -2.34277 3.44922 -2.34277 5.65625c0 2.20605 0.895508 4.20508 2.34277 5.65332l11.3096 11.3105c1.44824 1.44922 3.45215 2.34668 5.66113 2.34668
c2.20996 0 4.21094 -0.897461 5.65918 -2.34668z" />
    <glyph glyph-name="betamax" unicode="&#xf8a4;" 
d="M496 384c8.83105 0 16 -7.16895 16 -16v-48h-512v48c0 8.83105 7.16895 16 16 16h480zM0 48v240h512v-240c0 -26.4922 -21.5078 -48 -48 -48h-416c-26.4922 0 -48 21.5078 -48 48zM288 224v-160h160v160h-160zM144 224c-44.1533 0 -80 -35.8467 -80 -80
s35.8467 -80 80 -80s80 35.8467 80 80s-35.8467 80 -80 80zM144 112c-17.6611 0 -32 14.3389 -32 32s14.3389 32 32 32s32 -14.3389 32 -32s-14.3389 -32 -32 -32z" />
    <glyph glyph-name="boombox" unicode="&#xf8a5;" horiz-adv-x="640" 
d="M463 192c44.1299 -0.0498047 79.9502 -35.8701 80 -80c0 -44.1533 -35.8467 -80 -80 -80s-80 35.8467 -80 80s35.8467 80 80 80zM175 192c44.1299 -0.0498047 79.9502 -35.8701 80 -80c0 -44.1533 -35.8467 -80 -80 -80s-80 35.8467 -80 80s35.8467 80 80 80zM607 285.06
c18.6074 -6.53516 31.958 -24.2402 32 -45.0596v-256c0 -26.4922 -21.5078 -48 -48 -48h-544c-26.4922 0 -48 21.5078 -48 48v256c0.0419922 20.8193 13.3926 38.5244 32 45.0596v106.94c0.0332031 30.8916 25.1084 55.9668 56 56h464
c30.8916 -0.0332031 55.9668 -25.1084 56 -56v-106.94zM175 0c61.8145 0 112 50.1855 112 112s-50.1855 112 -112 112s-112 -50.1855 -112 -112s50.1855 -112 112 -112zM335 320c8.83105 0 16 -7.16895 16 -16v-16h32v16c0 8.83105 7.16895 16 16 16h32
c8.83105 0 16 -7.16895 16 -16v-16h112v104c0 4.41504 -3.58496 8 -8 8h-464c-4.41504 0 -8 -3.58496 -8 -8v-104h112v16c0 8.83105 7.16895 16 16 16h32c8.83105 0 16 -7.16895 16 -16v-16h32v16c0 8.83105 7.16895 16 16 16h32zM463 0c61.8145 0 112 50.1855 112 112
s-50.1855 112 -112 112s-112 -50.1855 -112 -112s50.1855 -112 112 -112z" />
    <glyph glyph-name="cactus" unicode="&#xf8a7;" 
d="M464 224c26.4922 0 48 -21.5078 48 -48v-64c0 -61.8145 -50.1855 -112 -112 -112h-48v-32c0 -17.6611 -14.3389 -32 -32 -32h-128c-17.6611 0 -32 14.3389 -32 32v160h-48c-61.8145 0 -112 50.1855 -112 112v64c0 26.4922 21.5078 48 48 48s48 -21.5078 48 -48v-64
c0 -8.83105 7.16895 -16 16 -16h48v128c0.000976562 52.9834 42.9434 96.001 95.9268 96.001c1.75586 0 3.50098 -0.0478516 5.2334 -0.140625c51.9102 -2.70996 90.8398 -49.29 90.8398 -101.29v-250.57h48c8.83105 0 16 7.16895 16 16v64c0 26.4922 21.5078 48 48 48z
M224 272c8.83105 0 16 7.16895 16 16s-7.16895 16 -16 16s-16 -7.16895 -16 -16s7.16895 -16 16 -16zM288 48c8.83105 0 16 7.16895 16 16s-7.16895 16 -16 16s-16 -7.16895 -16 -16s7.16895 -16 16 -16z" />
    <glyph glyph-name="camcorder" unicode="&#xf8a8;" horiz-adv-x="576" 
d="M525.59 282.3c21.3203 14.6104 50.4102 -0.389648 50.4102 -25.7998v-256.91c0 -25.5 -29.2002 -40.3896 -50.4102 -25.79l-109.59 75.5v157.4zM336.2 288c26.3789 -0.00585938 47.7939 -21.4209 47.7998 -47.7998v-224.4
c-0.00585938 -26.3789 -21.4209 -47.7939 -47.7998 -47.7998h-288.4c-26.3789 0.00585938 -47.7939 21.4209 -47.7998 47.7998v224.4c0.0449219 20.7783 13.4033 38.4404 32 44.9102v34.8896c0 52.9834 43.0166 96 96 96h176c8.83105 0 16 -7.16895 16 -16v-32
c0 -8.83105 -7.16895 -16 -16 -16h-176c-17.6611 0 -32 -14.3389 -32 -32v-32h240.2zM320 198.4v19.1992c-0.00585938 3.53027 -2.87012 6.39453 -6.40039 6.40039h-243.199c-3.53027 -0.00585938 -6.39453 -2.87012 -6.40039 -6.40039v-19.1992
c0.00585938 -3.53027 2.87012 -6.39453 6.40039 -6.40039h243.199c3.53027 0.00585938 6.39453 2.87012 6.40039 6.40039z" />
    <glyph glyph-name="camera-movie" unicode="&#xf8a9;" horiz-adv-x="576" 
d="M535.68 187.41c17.0508 11.6895 40.3203 -0.310547 40.3008 -20.6299v-205.54c0 -20.4004 -23.3203 -32.3105 -40.3203 -20.6299l-87.6602 60.3896v125.95zM368.2 160c26.3789 -0.00585938 47.7939 -21.4209 47.7998 -47.7998v-128.4
c-0.00585938 -26.3789 -21.4209 -47.7939 -47.7998 -47.7998h-256.4c-26.3789 0.00585938 -47.7939 21.4209 -47.7998 47.7998v112.2h-48c-8.83105 0 -16 7.16895 -16 16v32c0 8.83105 7.16895 16 16 16h352.2zM352 448c70.6455 0 128 -57.3545 128 -128
s-57.3545 -128 -128 -128h-224c-70.6455 0 -128 57.3545 -128 128s57.3545 128 128 128c48.5703 0 90.3096 -27.3701 112 -67.2305c21.6904 39.8604 63.4297 67.2305 112 67.2305zM128 256c35.3047 0.0380859 63.9619 28.6953 64 64c0 35.3223 -28.6777 64 -64 64
s-64 -28.6777 -64 -64s28.6777 -64 64 -64zM352 256c35.3047 0.0380859 63.9619 28.6953 64 64c0 35.3223 -28.6777 64 -64 64s-64 -28.6777 -64 -64s28.6777 -64 64 -64z" />
    <glyph glyph-name="camera-polaroid" unicode="&#xf8aa;" horiz-adv-x="576" 
d="M570.63 104.06c3.37988 -5.07227 5.37012 -11.1953 5.37012 -17.7432v-0.00683594v-86.3096c0 -17.6611 -14.3389 -32 -32 -32h-512c-17.6611 0 -32 14.3389 -32 32v86.3096c0.00195312 6.55078 1.99512 12.6768 5.37988 17.75l58.6201 87.9404v176
c0 26.4922 21.5078 48 48 48h352c26.4922 0 48 -21.5078 48 -48v-176zM392 336v-32c0 -4.41504 3.58496 -8 8 -8h32c4.41504 0 8 3.58496 8 8v32c0 4.41504 -3.58496 8 -8 8h-32c-4.41504 0 -8 -3.58496 -8 -8zM288 320c-35.2969 -0.0546875 -63.9453 -28.7031 -64 -64
c0 -35.3223 28.6777 -64 64 -64s64 28.6777 64 64s-28.6777 64 -64 64zM480 40v16c0 4.41504 -3.58496 8 -8 8h-368c-4.41504 0 -8 -3.58496 -8 -8v-16c0 -4.41504 3.58496 -8 8 -8h368c4.41504 0 8 3.58496 8 8z" />
    <glyph glyph-name="cassette-tape" unicode="&#xf8ab;" 
d="M464 385c26.4922 0 48 -21.5078 48 -48v-288c0 -26.4922 -21.5078 -48 -48 -48h-32l-48 96h-256l-48 -96h-32c-26.4922 0 -48 21.5078 -48 48v288c0 26.4922 21.5078 48 48 48h416zM128 193c17.6611 0 32 14.3389 32 32s-14.3389 32 -32 32s-32 -14.3389 -32 -32
s14.3389 -32 32 -32zM310.78 193c-4.33301 9.7666 -6.74023 20.6973 -6.74023 32.0625c0 11.3643 2.40723 22.1709 6.74023 31.9375h-109.561c4.33301 -9.7666 6.74023 -20.6973 6.74023 -32.0625c0 -11.3643 -2.40723 -22.1709 -6.74023 -31.9375h109.561zM384 193
c17.6611 0 32 14.3389 32 32s-14.3389 32 -32 32s-32 -14.3389 -32 -32s14.3389 -32 32 -32zM147.78 65h216.439l32 -64h-280.439z" />
    <glyph glyph-name="cctv" unicode="&#xf8ac;" horiz-adv-x="576" 
d="M517.45 279.42c24.3193 -9.72949 27.2803 -42.96 5.06934 -56.8398l-189.26 -118.311c-4.91113 -3.06934 -10.7588 -4.85352 -16.9717 -4.85352c-3.83398 0 -7.51074 0.675781 -10.918 1.91406l-68.5205 28.3799l-46.8496 -124.94
c-4.54785 -12.1357 -16.248 -20.7695 -29.9639 -20.7695h-0.0361328h-96v-32c0 -8.83105 -7.16895 -16 -16 -16h-32c-8.83105 0 -16 7.16895 -16 16v128c0 8.83105 7.16895 16 16 16h32c8.83105 0 16 -7.16895 16 -16v-32h73.8096l39.8408 106.15l-156.57 64.8496
c-12.3027 4.46191 -21.0693 16.2822 -21.0693 30.1172c0 5.77832 1.53516 11.2012 4.21973 15.8828l95.3398 166.87c5.5127 9.65137 15.9033 16.1152 27.8047 16.1152c4.19141 0 8.19531 -0.807617 11.8652 -2.27539zM565.92 174.22
c5.93945 -2.60645 10.0703 -8.5459 10.0703 -15.4424c0 -2.41016 -0.506836 -4.70312 -1.41992 -6.77734l-40.7002 -92.6201c-2.61035 -5.9375 -8.55078 -10.0674 -15.4482 -10.0674c-2.4082 0 -4.69922 0.505859 -6.77148 1.41797l-119.58 52.5791l138.399 86.5z" />
    <glyph glyph-name="clarinet" unicode="&#xf8ad;" horiz-adv-x="640" 
d="M630.12 318.78c5.80273 -2.40234 9.87891 -8.11426 9.87988 -14.7803v-224c-0.000976562 -6.66602 -4.07715 -12.3779 -9.87988 -14.7803c-1.86621 -0.78125 -3.9248 -1.21973 -6.07324 -1.21973h-0.046875c-4.41406 0.00195312 -8.41504 1.79297 -11.3096 4.69043
l-43.3105 43.3096h-468.189l-0.0126953 0.0078125c-3.53125 0 -6.92969 0.573242 -10.1074 1.63184l-80.1299 26.71c-6.35547 2.11914 -10.9404 8.11719 -10.9404 15.1807v72.9395c0 7.06348 4.58496 13.0615 10.9404 15.1807l80.1299 26.71
c3.17773 1.05859 6.58105 1.63965 10.1123 1.63965h0.0078125h154.81v32h-24c-4.41504 0 -8 3.58496 -8 8v16c0 4.41504 3.58496 8 8 8h272c4.41504 0 8 -3.58496 8 -8v-16c0 -4.41504 -3.58496 -8 -8 -8h-24v-32h89.3799l43.3105 43.3096
c2.88672 2.90234 6.89648 4.68945 11.3086 4.68945c2.16895 0 4.23633 -0.433594 6.12109 -1.21875zM384 304v-32h64v32h-64zM288 304v-32h64v32h-64zM272 168c13.2461 0 24 10.7539 24 24s-10.7539 24 -24 24s-24 -10.7539 -24 -24s10.7539 -24 24 -24zM368 168
c13.2461 0 24 10.7539 24 24s-10.7539 24 -24 24s-24 -10.7539 -24 -24s10.7539 -24 24 -24zM464 168c13.2461 0 24 10.7539 24 24s-10.7539 24 -24 24s-24 -10.7539 -24 -24s10.7539 -24 24 -24z" />
    <glyph glyph-name="cloud-music" unicode="&#xf8ae;" horiz-adv-x="640" 
d="M537.59 221.41c58.3389 -11.918 102.381 -63.5713 102.381 -125.41c0 -70.6357 -57.3389 -127.984 -127.971 -128h-368c-0.0761719 0 -0.188477 -0.0429688 -0.264648 -0.0429688c-79.4756 0 -144 64.5244 -144 144c0 62.8184 40.3115 116.296 96.4551 135.953
c-0.100586 2.67969 -0.19043 5.38965 -0.19043 8.08984c0 88.3066 71.5918 160.189 159.898 160.189c59.333 0 111.166 -32.3652 138.792 -80.3896c15.2402 10.1855 33.6143 16.1357 53.3047 16.1357c52.9844 0 96 -43.0166 96 -96
c0 -12.168 -2.26855 -23.8096 -6.40527 -34.5254zM384 96v160c-0.00585938 8.82617 -7.17285 15.9863 -16.001 15.9863c-1.6748 0 -3.29102 -0.257812 -4.80859 -0.736328l-128 -47.25c-6.48145 -2.04297 -11.1855 -8.09961 -11.1904 -15.25v-114.75
c-5.1416 1.25781 -10.4844 1.95215 -16 2c-26.5 0 -48 -14.3301 -48 -32s21.5 -32 48 -32s48 14.3301 48 32v100.84l96 37.5205v-76.3604c-5.1416 1.25781 -10.4844 1.95215 -16 2c-26.5 0 -48 -14.3301 -48 -32s21.5 -32 48 -32s48 14.3301 48 32z" />
    <glyph glyph-name="comment-alt-music" unicode="&#xf8af;" 
d="M448 449c35.3096 -0.0273438 63.9727 -28.6904 64 -64v-288c-0.0273438 -35.3096 -28.6904 -63.9727 -64 -64h-144l-124.91 -93.7002c-1.98535 -1.45312 -4.44336 -2.31836 -7.08984 -2.31836c-6.62305 0 -12 5.37695 -12 12v0.0185547v84h-96
c-35.3096 0.0273438 -63.9727 28.6904 -64 64v288c0.0273438 35.3096 28.6904 63.9727 64 64h384zM352 193v160c-0.00585938 8.82617 -7.17285 15.9863 -16.001 15.9863c-1.6748 0 -3.29102 -0.257812 -4.80859 -0.736328l-128 -47.25
c-6.48145 -2.04297 -11.1855 -8.09961 -11.1904 -15.25v-114.75c-5.1416 1.25781 -10.4844 1.95215 -16 2c-26.5 0 -48 -14.3301 -48 -32s21.5 -32 48 -32s48 14.3301 48 32v100.84l96 37.5205v-76.3604c-5.1416 1.25781 -10.4844 1.95215 -16 2
c-26.5 0 -48 -14.3301 -48 -32s21.5 -32 48 -32s48 14.3301 48 32z" />
    <glyph glyph-name="comment-music" unicode="&#xf8b0;" 
d="M256 416c141.41 0 256 -93.0898 256 -208s-114.59 -208 -256 -208c-0.138672 0 -0.404297 0.108398 -0.542969 0.108398c-37.5947 0 -73.6074 6.82422 -106.867 19.3018c-24.5898 -19.6104 -74.2803 -51.4102 -140.59 -51.4102
c-0.0214844 0 -0.0380859 -0.00585938 -0.0595703 -0.00585938c-3.25684 0 -6.05469 1.98242 -7.25 4.80566c-0.431641 0.983398 -0.675781 2.07715 -0.675781 3.21875c0 2.12012 0.827148 4.04883 2.17578 5.48145c0.5 0.5 42.3096 45.4102 54.8096 95.7998
c-35.5898 35.7002 -57 81.1104 -57 130.7c0 114.91 114.59 208 256 208zM352 160v160c-0.00585938 8.82617 -7.17285 15.9863 -16.001 15.9863c-1.6748 0 -3.29102 -0.257812 -4.80859 -0.736328l-128 -47.25c-6.48145 -2.04297 -11.1855 -8.09961 -11.1904 -15.25v-114.75
c-5.1416 1.25781 -10.4844 1.95215 -16 2c-26.5 0 -48 -14.3301 -48 -32s21.5 -32 48 -32s48 14.3301 48 32v100.84l96 37.5205v-76.3604c-5.1416 1.25781 -10.4844 1.95215 -16 2c-26.5 0 -48 -14.3301 -48 -32s21.5 -32 48 -32s48 14.3301 48 32z" />
    <glyph glyph-name="computer-classic" unicode="&#xf8b1;" horiz-adv-x="448" 
d="M32 -48v48h384v-48c0 -8.83105 -7.16895 -16 -16 -16h-352c-8.83105 0 -16 7.16895 -16 16zM416 448c17.6611 0 32 -14.3389 32 -32v-368c0 -8.83105 -7.16895 -16 -16 -16h-416c-8.83105 0 -16 7.16895 -16 16v368c0 17.6611 14.3389 32 32 32h384zM80 92
c11.0381 0 20 8.96191 20 20s-8.96191 20 -20 20s-20 -8.96191 -20 -20s8.96191 -20 20 -20zM384 104v16c0 4.41504 -3.58496 8 -8 8h-144c-4.41504 0 -8 -3.58496 -8 -8v-16c0 -4.41504 3.58496 -8 8 -8h144c4.41504 0 8 3.58496 8 8zM384 224v128
c0 17.6611 -14.3389 32 -32 32h-256c-17.6611 0 -32 -14.3389 -32 -32v-128c0 -17.6611 14.3389 -32 32 -32h256c17.6611 0 32 14.3389 32 32z" />
    <glyph glyph-name="computer-speaker" unicode="&#xf8b2;" horiz-adv-x="640" 
d="M288 32v-16c0.0644531 -18.0264 6.19629 -34.71 16.4102 -48h-176.41c-17.6611 0 -32 14.3389 -32 32s14.3389 32 32 32h160zM0 368c0 26.4922 21.5078 48 48 48h256.41c-10.2139 -13.29 -16.3457 -29.9736 -16.4102 -48v-16h-224v-224h224v-64h-240
c-26.4922 0 -48 21.5078 -48 48v256zM592 416c26.4922 0 48 -21.5078 48 -48v-352c0 -26.4922 -21.5078 -48 -48 -48h-224c-26.4922 0 -48 21.5078 -48 48v352c0 26.4922 21.5078 48 48 48h224zM480 352c-17.6611 0 -32 -14.3389 -32 -32s14.3389 -32 32 -32
s32 14.3389 32 32s-14.3389 32 -32 32zM480 32c52.9834 0 96 43.0166 96 96s-43.0166 96 -96 96s-96 -43.0166 -96 -96s43.0166 -96 96 -96zM480 192c35.3223 0 64 -28.6777 64 -64s-28.6777 -64 -64 -64s-64 28.6777 -64 64s28.6777 64 64 64z" />
    <glyph glyph-name="cowbell" unicode="&#xf8b3;" horiz-adv-x="448" 
d="M384.19 325.65l63.2998 -352c0.330078 -1.84375 0.503906 -3.71289 0.503906 -5.65039c0 -17.6611 -14.3389 -32 -32 -32h-0.0644531h-383.859c-0.0214844 0 -0.0419922 -0.0283203 -0.0634766 -0.0283203c-17.6611 0 -32 14.3389 -32 32
c0 1.9375 0.172852 3.83496 0.50293 5.67871l63.2998 352c2.68359 14.9561 15.7725 26.3496 31.4971 26.3496h0.0537109h16.8398v48c0.0546875 26.4971 21.5811 47.9941 48.0898 48h128.229c0.00683594 0 0.0136719 -0.00195312 0.0205078 -0.00195312
c26.5137 0 48.0449 -21.498 48.0996 -47.998v-48h16c0.0185547 0 0.0351562 -0.0283203 0.0537109 -0.0283203c15.7236 0 28.8135 -11.3652 31.4971 -26.3213zM176.32 384v-32h96.1699v32h-96.1699z" />
    <glyph glyph-name="cowbell-more" unicode="&#xf8b4;" horiz-adv-x="640" 
d="M287.78 96c0 -66.7402 34.3398 -125.58 86.29 -160h-342c-0.0214844 0 -0.0419922 -0.0283203 -0.0634766 -0.0283203c-17.6611 0 -32 14.3389 -32 32c0 1.9375 0.172852 3.83496 0.50293 5.67871l63.3105 352c2.68262 14.9561 15.7725 26.3496 31.4961 26.3496
h0.0634766h17.4297v48c0.0283203 26.4795 21.5215 47.9727 48 48h128c26.4795 -0.0273438 47.9727 -21.5205 48 -48v-48h15.9102c0.0078125 0 0.015625 -0.0283203 0.0234375 -0.0283203c15.7354 0 28.8389 -11.3613 31.5469 -26.3213l10.4102 -57.8906
c-63.2598 -31.4902 -106.92 -96.5498 -106.92 -171.76zM272.78 352v32h-96v-32h96zM480 256c88.3066 0 160 -71.6934 160 -160s-71.6934 -160 -160 -160s-160 71.6934 -160 160s71.6934 160 160 160zM560 88v16c0 4.41504 -3.58496 8 -8 8h-56v56c0 4.41504 -3.58496 8 -8 8
h-16c-4.41504 0 -8 -3.58496 -8 -8v-56h-56c-4.41504 0 -8 -3.58496 -8 -8v-16c0 -4.41504 3.58496 -8 8 -8h56v-56c0 -4.41504 3.58496 -8 8 -8h16c4.41504 0 8 3.58496 8 8v56h56c4.41504 0 8 3.58496 8 8z" />
    <glyph glyph-name="disc-drive" unicode="&#xf8b5;" 
d="M496 32c8.83105 0 16 -7.16895 16 -16v-32c0 -8.83105 -7.16895 -16 -16 -16h-480c-8.83105 0 -16 7.16895 -16 16v32c0 8.83105 7.16895 16 16 16h16v320c0 35.3223 28.6777 64 64 64h320c35.3223 0 64 -28.6777 64 -64v-320h16zM256 32c88.3066 0 160 71.6934 160 160
s-71.6934 160 -160 160s-160 -71.6934 -160 -160s71.6934 -160 160 -160zM256 224c17.6611 0 32 -14.3389 32 -32s-14.3389 -32 -32 -32s-32 14.3389 -32 32s14.3389 32 32 32z" />
    <glyph glyph-name="file-music" unicode="&#xf8b6;" horiz-adv-x="384" 
d="M224 312c0.0439453 -13.2256 10.7744 -23.9561 24 -24h136v-328c0 -0.0205078 0.000976562 -0.0400391 0.000976562 -0.0605469c0 -13.2119 -10.7266 -23.9395 -23.9395 -23.9395h-0.0615234h-336c-0.0205078 0 -0.0400391 -0.000976562 -0.0605469 -0.000976562
c-13.2119 0 -23.9395 10.7266 -23.9395 23.9395v0.0615234v464c0 0.0205078 -0.000976562 0.0400391 -0.000976562 0.0605469c0 13.2119 10.7266 23.9395 23.9395 23.9395h0.0615234h200v-136zM288 224c-0.00585938 8.82617 -7.17285 15.9863 -16.001 15.9863
c-1.6748 0 -3.29102 -0.257812 -4.80859 -0.736328l-128 -47.25c-6.48145 -2.04297 -11.1855 -8.09961 -11.1904 -15.25v-114.75c-5.1416 1.25781 -10.4844 1.95215 -16 2c-26.5 0 -48 -14.3301 -48 -32s21.5 -32 48 -32s48 14.3301 48 32v100.84l96 37.5205v-76.3604
c-5.1416 1.25781 -10.4844 1.95215 -16 2c-26.5 0 -48 -14.3301 -48 -32s21.5 -32 48 -32s48 14.3301 48 32v160zM377 343c4.32617 -4.32812 7 -10.3076 7 -16.9033v-0.00683594v-6.08984h-128v128h6.08984c0.0205078 0 0.0429688 0.00292969 0.0625 0.00292969
c6.6084 0 12.5957 -2.67578 16.9375 -7.00293z" />
    <glyph glyph-name="flashlight" unicode="&#xf8b8;" horiz-adv-x="640" 
d="M384 288l16.1201 10.75c43.1396 28.7598 92.6201 45.6699 143.88 50.8896v-315.279c-51.2598 5.21973 -100.74 22.1299 -143.88 50.8896l-16.1201 10.75h-352c-17.6611 0 -32 14.3389 -32 32v128c0 17.6611 14.3389 32 32 32h352zM288 160c17.6611 0 32 14.3389 32 32
s-14.3389 32 -32 32h-32c-17.6611 0 -32 -14.3389 -32 -32s14.3389 -32 32 -32h32zM608 352c17.6611 0 32 -14.3389 32 -32v-256c0 -17.6611 -14.3389 -32 -32 -32h-32v320h32z" />
    <glyph glyph-name="flute" unicode="&#xf8b9;" horiz-adv-x="640" 
d="M0 240c0 17.6611 14.3389 32 32 32h64v-160h-64c-17.6611 0 -32 14.3389 -32 32v96zM608 272c17.6611 0 32 -14.3389 32 -32v-96c0 -17.6611 -14.3389 -32 -32 -32h-480v160h480zM320 168c13.2461 0 24 10.7539 24 24s-10.7539 24 -24 24s-24 -10.7539 -24 -24
s10.7539 -24 24 -24zM416 168c13.2461 0 24 10.7539 24 24s-10.7539 24 -24 24s-24 -10.7539 -24 -24s10.7539 -24 24 -24zM512 168c13.2461 0 24 10.7539 24 24s-10.7539 24 -24 24s-24 -10.7539 -24 -24s10.7539 -24 24 -24z" />
    <glyph glyph-name="game-console-handheld" unicode="&#xf8bb;" horiz-adv-x="384" 
d="M352 448c17.6611 0 32 -14.3389 32 -32v-384c0 -52.9834 -43.0166 -96 -96 -96h-256c-17.6611 0 -32 14.3389 -32 32v448c0 17.6611 14.3389 32 32 32h320zM160 104v16c0 4.41504 -3.58496 8 -8 8h-24v24c0 4.41504 -3.58496 8 -8 8h-16c-4.41504 0 -8 -3.58496 -8 -8
v-24h-24c-4.41504 0 -8 -3.58496 -8 -8v-16c0 -4.41504 3.58496 -8 8 -8h24v-24c0 -4.41504 3.58496 -8 8 -8h16c4.41504 0 8 3.58496 8 8v24h24c4.41504 0 8 3.58496 8 8zM232 64c13.2461 0 24 10.7539 24 24s-10.7539 24 -24 24s-24 -10.7539 -24 -24s10.7539 -24 24 -24z
M112 224h144c17.6611 0 32 14.3389 32 32v112c0 8.83105 -7.16895 16 -16 16h-160c-8.83105 0 -16 -7.16895 -16 -16v-128c0 -8.83105 7.16895 -16 16 -16zM296 112c13.2461 0 24 10.7539 24 24s-10.7539 24 -24 24s-24 -10.7539 -24 -24s10.7539 -24 24 -24z" />
    <glyph glyph-name="gamepad-alt" unicode="&#xf8bc;" horiz-adv-x="640" 
d="M638.59 79.7803c10.3105 -58.5107 -37.3896 -111.78 -100.1 -111.78c-49.6699 0 -93.7705 30.0703 -109.49 74.6396l-7.49023 21.3604h-203l-7.51953 -21.3604c-15.71 -44.5693 -59.8105 -74.6396 -109.48 -74.6396c-62.71 0 -110.41 53.2695 -100.1 111.78
l33.3701 211.59c8.85938 50.2695 48.3896 90.7695 100.71 103.13c59.3799 14.0146 120.431 21.4316 184.066 21.4316s125.553 -7.41699 184.934 -21.4316h0.0693359c52.2607 -12.3604 91.8008 -52.8701 100.66 -103.13zM280 212v24c0 6.62305 -5.37695 12 -12 12h-52v52
c0 6.62305 -5.37695 12 -12 12h-24c-6.62305 0 -12 -5.37695 -12 -12v-52h-52c-6.62305 0 -12 -5.37695 -12 -12v-24c0 -6.62305 5.37695 -12 12 -12h52v-52c0 -6.62305 5.37695 -12 12 -12h24c6.62305 0 12 5.37695 12 12v52h52c6.62305 0 12 5.37695 12 12zM432 136
c22.0762 0 40 17.9238 40 40s-17.9238 40 -40 40s-40 -17.9238 -40 -40s17.9238 -40 40 -40zM496 232c22.0762 0 40 17.9238 40 40s-17.9238 40 -40 40s-40 -17.9238 -40 -40s17.9238 -40 40 -40z" />
    <glyph glyph-name="gramophone" unicode="&#xf8bd;" horiz-adv-x="384" 
d="M69.5596 130.92c-18.21 -12.4697 -42.5596 4.40039 -36.7393 26.0205l73.1797 273.27c5.75977 21.4697 35.2002 24.29 44.8398 4.16992c32.1602 -67.21 92.3301 -162.51 169.75 -183.26c31.876 -8.58691 55.3906 -37.7012 55.4102 -72.2705
c-0.0546875 -45.6592 -37.1191 -82.7197 -82.7803 -82.7695h-133.22v24c0 13.2461 10.7539 24 24 24h109.22c19.1846 0.0166016 34.7578 15.5869 34.7803 34.7695c-0.000976562 12.3789 -8.42383 22.8037 -19.8398 25.8701
c-76.8398 20.6006 -175.76 -30.75 -238.601 -73.7998zM368 0c8.83105 0 16 -7.16895 16 -16v-32c0 -8.83105 -7.16895 -16 -16 -16h-352c-8.83105 0 -16 7.16895 -16 16v32c0 8.83105 7.16895 16 16 16h16v32c0 17.6611 14.3389 32 32 32h256c17.6611 0 32 -14.3389 32 -32
v-32h16z" />
    <glyph glyph-name="guitar-electric" unicode="&#xf8be;" 
d="M511.21 408.46c0.536133 -2.86914 0.816406 -5.78711 0.816406 -8.80957c0 -26.4922 -21.5088 -48 -48 -48h-0.0263672c-0.839844 0 -1.58008 0.299805 -2.40039 0.349609l-173.04 -172.89c6.81641 -5.5498 15.5381 -8.88477 25.0049 -8.88477
c4.08887 0 8.0332 0.621094 11.7451 1.77441l23.7207 7.5498c1.91699 0.617188 3.96582 0.952148 6.08691 0.952148c10.9668 0 19.8701 -8.90332 19.8701 -19.8701c0 -5.50098 -2.24023 -10.4824 -5.85742 -14.082l-21.5596 -21.5498
c-8.07422 -8.05273 -17.8955 -14.3066 -28.8604 -18.2002c-19.7041 -7.00879 -35.6855 -21.667 -44.4102 -40.4902l-35.3994 -76.3896c-22.9004 -57.1504 -96.79 -72.3096 -140.351 -28.7803l-73.3896 73.3301c-43.5605 43.5303 -28.3906 117.38 28.8398 140.24
l76.4199 35.3701c18.8271 8.71094 33.4951 24.6777 40.5205 44.3701c3.90039 10.9648 10.1689 20.7803 18.2393 28.8398l38.3105 38.2803c3.40723 3.41211 8.10938 5.50586 13.3076 5.50586c10.3877 0 18.8203 -8.43262 18.8203 -18.8203
c0 -2.83008 -0.626953 -5.5166 -1.74805 -7.92578l-17.29 -37.1299c-2.27539 -4.98145 -3.54102 -10.5898 -3.54102 -16.4189c0 -8.14941 2.47754 -15.7236 6.7207 -22.0117l108.24 108.16v33.25c0.0322266 11.3018 5.87988 21.2197 14.7402 26.9199
c83.9199 54.1201 83.7402 57.9004 106.68 53.5908c19.1045 -3.83887 34.167 -19.0498 37.79 -38.2305zM181.65 53.6602c1.45508 1.44922 2.35742 3.45605 2.35742 5.6709c0 2.21387 -0.902344 4.21973 -2.35742 5.66895l-52.6807 52.6299
c-1.44824 1.4502 -3.45117 2.34766 -5.66113 2.34766c-2.20898 0 -4.20996 -0.897461 -5.6582 -2.34766l-11.3105 -11.3096c-1.4502 -1.44824 -2.34766 -3.45215 -2.34766 -5.66113c0 -2.20996 0.897461 -4.21094 2.34766 -5.65918l52.6904 -52.6504
c1.44727 -1.44629 3.44922 -2.3418 5.65625 -2.3418c2.20605 0 4.20508 0.895508 5.65332 2.3418zM245.65 117.66c1.45508 1.44922 2.35742 3.45605 2.35742 5.6709c0 2.21387 -0.902344 4.21973 -2.35742 5.66895l-52.6807 52.6299
c-1.44824 1.4502 -3.45117 2.34766 -5.66113 2.34766c-2.20898 0 -4.20996 -0.897461 -5.6582 -2.34766l-11.3105 -11.3096c-1.4502 -1.44824 -2.34766 -3.45215 -2.34766 -5.66113c0 -2.20996 0.897461 -4.21094 2.34766 -5.65918l52.6904 -52.6504
c1.44727 -1.44629 3.44922 -2.3418 5.65625 -2.3418c2.20605 0 4.20508 0.895508 5.65332 2.3418z" />
    <glyph glyph-name="guitars" unicode="&#xf8bf;" 
d="M229.27 147.79c-7.96973 -15.6299 -5.96973 -35.6299 4.9209 -48.79c3.24414 -3.9209 6.16895 -8.04102 8.80957 -12.4199l-10.25 -27.7402c-5.57031 -13.252 -8.66504 -27.916 -8.66504 -43.1836c0 -13.0117 2.23633 -25.5049 6.34473 -37.1162
c-1.19922 -1.32031 -2.14941 -2.7998 -3.42969 -4.07031c-23.46 -23.4697 -59.1104 -38.4697 -99 -38.4697c-70.6602 0 -128.07 47 -128 105c-0.0703125 21.5703 8.11035 41.4502 21.7598 57.9404c10.8799 13.1895 12.8799 33.1299 4.87988 48.7793
c-5.32422 10.2158 -8.39062 21.8984 -8.41992 34.2002c0 21.5801 9.23047 41.1904 24.6201 56.5801c5.62402 5.59961 11.7949 10.4766 18.5801 14.6699c12.8398 7.99023 27.5801 11.9902 42.5801 13.8301v54.2598l-16.6299 33.25
c-1.95215 3.90625 -3.06738 8.34082 -3.07031 13v54.0801c0 14.5762 11.834 26.4102 26.4102 26.4102h0.00976562h34.5303h0.00976562c14.582 0 26.4199 -11.8389 26.4199 -26.4199v-54.0996c-0.00683594 -4.66016 -1.12598 -9.09375 -3.08008 -13l-16.5996 -33.2109
v-54.2197c15.0303 -1.87988 29.7305 -5.87988 42.5596 -13.8799c26.1406 -16.3496 43.1406 -42.0303 43.1406 -71.1699c-0.0361328 -12.3037 -3.10547 -23.9902 -8.43066 -34.21zM156.27 115.71c7.23828 7.24023 11.7373 17.249 11.7373 28.2852
c0 11.0469 -4.4873 21.0527 -11.7373 28.2949c-7.23926 7.2373 -17.2373 11.7041 -28.2725 11.7041c-22.0762 0 -40 -17.9229 -40 -40c0 -22.0762 17.9238 -40 40 -40c11.0352 0 21.0332 4.47852 28.2725 11.7158zM505.46 47.1797
c22.5195 -52.5898 -16.0596 -111.12 -73.29 -111.18h-96.4102c-57.2197 0 -95.7598 58.4697 -73.1494 111.06l27 73.4805c2.84961 7.74805 4.39062 16.2129 4.39062 24.9443c0 11.0303 -2.4834 21.4854 -6.9209 30.8359c-4.45508 9.35547 -6.99219 19.8867 -7 30.9297
v50.3301l-0.00585938 0.00976562c0 9.65332 7.83691 17.4902 17.4902 17.4902c7.54883 0 13.9883 -4.79297 16.4355 -11.5l13 -35.7598c4.16016 -11.3701 13.6904 -19.2607 25 -22.3701l8 -0.110352v91.6602l-22.8701 22.9297
c-4.91016 4.9375 -7.94141 11.7256 -7.94141 19.2324c0 1.97852 0.210938 3.9082 0.611328 5.76758c17.8506 82.8906 15.46 85.0898 31.8506 96.2402c6.46094 4.30371 14.2656 6.83105 22.6045 6.83105c22.502 0 40.7695 -18.2686 40.7695 -40.7695
c0 -11.2451 -4.56152 -21.4326 -11.9346 -28.8115c-1.58008 -1.42188 -3.26855 -2.68359 -5.08984 -3.7998v-169.92l8 -0.100586c11.2695 2 21.2598 8.63086 26.6201 19l10.6104 20.5508c3.07031 5.94434 9.2627 9.99316 16.4092 9.99316
c10.1924 0 18.4668 -8.27246 18.4707 -18.4639v-28.3193c-0.00878906 -11.0459 -2.5459 -21.5811 -7 -30.9404c-4.45508 -9.36719 -6.96484 -19.9385 -6.96484 -30.9932c0 -8.71094 1.54883 -17.0635 4.38477 -24.7969zM432 56v16c0 4.41504 -3.58496 8 -8 8h-80
c-4.41504 0 -8 -3.58496 -8 -8v-16c0 -4.41504 3.58496 -8 8 -8h80c4.41504 0 8 3.58496 8 8zM432 120.12v16c0 4.41504 -3.58496 8 -8 8h-80c-4.41504 0 -8 -3.58496 -8 -8v-16c0 -4.41504 3.58496 -8 8 -8h80c4.41504 0 8 3.58496 8 8z" />
    <glyph glyph-name="hat-cowboy" unicode="&#xf8c0;" horiz-adv-x="640" 
d="M490 151.1c-38.7695 -12.5898 -93.7305 -23.0996 -170 -23.0996s-131.19 10.5303 -169.99 23.1201c9.50977 57.4102 39.5098 232.88 97.71 232.88c14 0 26.4902 -6 37 -14c9.78516 -7.45996 22.0947 -11.8906 35.3369 -11.8906c13.2432 0 25.458 4.43066 35.2432 11.8906
c10.5098 8.07031 23 14 37 14c58.21 0 88.21 -175.51 97.7002 -232.9zM632.9 188.28c4.27637 -2.87402 7.08008 -7.75195 7.08008 -13.2871c0 -1.94043 -0.34668 -3.80078 -0.980469 -5.52344c-0.730469 -2.01953 -77.3203 -201.47 -319 -201.47s-318.27 199.45 -319 201.47
c-0.625977 1.71289 -0.966797 3.56543 -0.966797 5.49316c0 8.83105 7.16992 16 16 16c4.12012 0 7.87891 -1.56055 10.7168 -4.12305c1.01953 -0.899414 102.42 -90.8398 293.24 -90.8398c191.89 0 292.16 89.8799 293.16 90.7803
c2.84863 2.61816 6.6709 4.20996 10.8428 4.20996c3.2959 0 6.36035 -0.999023 8.90723 -2.70996z" />
    <glyph glyph-name="hat-cowboy-side" unicode="&#xf8c1;" horiz-adv-x="640" 
d="M260.8 156.94l98.0098 -84.4805c78.1904 -67.3896 129.98 -104.46 233.19 -104.46h-546.12c-14.0498 0 -27.1299 7.53027 -35.8799 20.6396c-9 13.4707 -12.1201 30.7002 -8.57031 47.3008c20.04 93.3398 85.5703 156.06 162.971 156.06
c34.3994 0 67.7695 -12.1201 96.3994 -35.0596zM495.45 175.23c114.95 -7.90039 144.55 -101.841 144.55 -127.23c0 -26.4922 -21.5078 -48 -48 -48c-97.0996 0 -141.24 35.46 -212.31 96.7002l-98 84.4795c-35.29 28.2705 -75.5 42.8203 -117.29 42.8203
c-7.09082 0 -13.8906 -1.16992 -20.79 -2l6.88965 65.21c2.96094 27.6465 23.6035 50.1143 50.3496 55.79l191.15 40.5898c4.31055 0.916992 8.73828 1.34277 13.3203 1.34277c31.6191 0 57.9131 -22.9785 63.0801 -53.1328z" />
    <glyph glyph-name="head-side-headphones" unicode="&#xf8c2;" 
d="M509.21 175c1.76367 -3.9668 2.75879 -8.38281 2.75879 -13c0 -17.6514 -14.3213 -31.9834 -31.9688 -32h-32v-64c0 -35.3223 -28.6777 -64 -64 -64h-64v-64h-256v177.19c-39.3125 35.041 -64 86.0557 -64 142.81c0 95.1201 69.2305 173.86 160 189.12v-104.311
c-37.7402 -18.0195 -64 -56.21 -64 -100.81c0 -61.8145 50.1855 -112 112 -112s112 50.1855 112 112c0 44.5996 -26.2598 82.8096 -64 100.81v107.19h10.0898c70.2959 0 132.392 -34.7734 170.021 -88.25c24.6592 -35.0195 52.1592 -139.63 73.0996 -186.75zM128 242
c0 44.1533 35.8467 80 80 80s80 -35.8467 80 -80s-35.8467 -80 -80 -80s-80 35.8467 -80 80zM208 274c-17.6611 0 -32 -14.3389 -32 -32s14.3389 -32 32 -32s32 14.3389 32 32s-14.3389 32 -32 32z" />
    <glyph glyph-name="horse-saddle" unicode="&#xf8c3;" horiz-adv-x="576" 
d="M128 288c0.0615234 -47.4111 34.7158 -86.8057 80 -94.3896v-72.54l-22 3.66016l-23.8096 -63.5908l26.3398 -105.26c0.310547 -1.24414 0.477539 -2.53906 0.477539 -3.87988c0 -8.83105 -7.16992 -16 -16 -16h-0.0078125h-66
c-6.87988 0 -13.8096 5.44043 -15.5 12.1201l-24.8398 99.3994c-1.24512 4.98535 -1.88867 10.2002 -1.88867 15.5684c0 7.88965 1.42773 15.4482 4.03809 22.4316l25.7207 68.6006c-18.7715 17.4189 -30.501 42.2852 -30.5303 69.8799
c0 2.62012 0.55957 5.08984 0.780273 7.69043c-9.91016 -7.30078 -16.7803 -18.4707 -16.7803 -31.6904v-56c0 -8.83105 -7.16895 -16 -16 -16h-16c-8.83105 0 -16 7.16895 -16 16v56c0.0498047 48.5459 39.4541 87.9502 88 88v-1.11035
c10.748 12.1035 24.4385 21.4219 40 26.9404v-25.8301zM288 288c0 -35.3223 -28.6777 -64 -64 -64s-64 28.6777 -64 64v32h128v-32zM575.9 371.41l0.0996094 -77.75c0 -11.96 -9 -25.2705 -20.1299 -29.7197l-32.5605 -13
c-3.67285 -1.47168 -7.68066 -2.3252 -11.877 -2.3252c-12.5166 0 -23.3652 7.20215 -28.623 17.6846l-18.9092 37.7002l-16 7.11035v-102.471c0.0517578 -0.206055 0.0859375 -0.420898 0.0996094 -0.639648c0 -0.0136719 0.0107422 -0.046875 0.0107422 -0.0615234
c0 -30.4307 -12.2178 -58.0312 -32.0107 -78.1582v-177.78c0 -8.83105 -7.16895 -16 -16 -16h-64c-8.83105 0 -16 7.16895 -16 16v150.36l-80 13.3301v77.8691c45.2842 7.58496 79.9385 46.9795 80 94.3906v33c0.488281 70.1826 57.6074 127.029 127.9 127.05h120
c4.46387 -0.0136719 8.08496 -3.63574 8.08496 -8.10352c0 -0.525391 -0.0498047 -1.03906 -0.145508 -1.53613c-2.68945 -13.1699 -11.1201 -23.8105 -22.1895 -30.6602c5.09961 -5.39062 9.90918 -10.5 13.6895 -14.5c5.30762 -5.66699 8.56055 -13.291 8.56055 -21.6602
v-0.129883zM511.9 352c8.83008 0 16 7.16895 16 16s-7.16992 16 -16 16c-8.83105 0 -16 -7.16895 -16 -16s7.16895 -16 16 -16z" />
    <glyph glyph-name="image-polaroid" unicode="&#xf8c4;" horiz-adv-x="448" 
d="M128 256c-17.6611 0 -32 14.3389 -32 32s14.3389 32 32 32s32 -14.3389 32 -32s-14.3389 -32 -32 -32zM416 416c17.6611 0 32 -14.3389 32 -32v-384c0 -17.6611 -14.3389 -32 -32 -32h-384c-17.6611 0 -32 14.3389 -32 32v384c0 17.6611 14.3389 32 32 32h384zM384 96
v256h-320v-256h320zM268.8 238.93l83.2002 -110.93h-256l50.6904 76c2.86914 4.30078 7.74609 7.13672 13.2998 7.13672s10.4502 -2.83594 13.3193 -7.13672l20.5703 -30.8203l49.3203 65.75c2.91992 3.89355 7.55664 6.41406 12.792 6.41406
c5.23633 0 9.8877 -2.52051 12.8076 -6.41406z" />
    <glyph glyph-name="joystick" unicode="&#xf8c5;" horiz-adv-x="448" 
d="M416 96c17.6611 0 32 -14.3389 32 -32v-96c0 -17.6611 -14.3389 -32 -32 -32h-384c-17.6611 0 -32 14.3389 -32 32v96c0 17.6611 14.3389 32 32 32h32v16c0 8.83105 7.16895 16 16 16h32c8.83105 0 16 -7.16895 16 -16v-16h288zM192 229.2
c-46.1504 13.7998 -80 56.1396 -80 106.8c0 61.8145 50.1855 112 112 112s112 -50.1855 112 -112c0 -50.6602 -33.8496 -93 -80 -106.8v-101.2h-64v101.2zM200 400c-13.2461 0 -24 -10.7539 -24 -24s10.7539 -24 24 -24s24 10.7539 24 24s-10.7539 24 -24 24z" />
    <glyph glyph-name="jug" unicode="&#xf8c6;" horiz-adv-x="448" 
d="M448 280c-0.0185547 -29.4639 -17.7178 -54.7764 -43.0996 -65.9004c6.95605 -15.5645 10.9492 -32.8965 11.0996 -51v-163.1c0 -35.3223 -28.6777 -64 -64 -64h-255.95c-35.3223 0 -64 28.6777 -64 64v163.06c0 0.0341797 0.0478516 0.157227 0.0478516 0.191406
c0 30.1709 10.4619 57.9189 27.9521 79.8086l76.9502 96.1709c2.79395 3.69336 4.81055 8.06738 5.76953 12.7695h162.461c0.958984 -4.70215 2.97559 -9.07617 5.76953 -12.7695l10.3203 -12.8809c13.1602 15.6982 32.8926 25.6484 54.96 25.6484
c39.584 0 71.7207 -32.1367 71.7207 -71.7197c0 -0.0927734 -0.000976562 -0.185547 -0.000976562 -0.27832zM352 64v64c0 17.6611 -14.3389 32 -32 32h-192c-17.6611 0 -32 -14.3389 -32 -32v-64c0 -17.6611 14.3389 -32 32 -32h192c17.6611 0 32 14.3389 32 32z
M377.38 256.28c12.5293 0.725586 22.498 11.1299 22.498 23.8398c0 13.1787 -10.6992 23.8789 -23.8779 23.8799c-11 0 -19.8604 -7.54004 -22.71 -17.6201zM152 384c-0.0205078 0 -0.0400391 -0.000976562 -0.0605469 -0.000976562
c-13.2119 0 -23.9395 10.7266 -23.9395 23.9395v0.0615234v16c0 0.0205078 -0.000976562 0.0400391 -0.000976562 0.0605469c0 13.2119 10.7266 23.9395 23.9395 23.9395h0.0615234h144c0.0205078 0 0.0400391 0.000976562 0.0605469 0.000976562
c13.2119 0 23.9395 -10.7266 23.9395 -23.9395v-0.0615234v-16c0 -0.0205078 0.000976562 -0.0400391 0.000976562 -0.0605469c0 -13.2119 -10.7266 -23.9395 -23.9395 -23.9395h-0.0615234h-144z" />
    <glyph glyph-name="kazoo" unicode="&#xf8c7;" horiz-adv-x="640" 
d="M608 320c17.6611 0 32 -14.3389 32 -32v-192c0 -17.6611 -14.3389 -32 -32 -32h-95.4199c-19.5098 -9.88965 -41.25 -16 -64.5801 -16s-45.0703 6.11035 -64.5801 16h-141.49c-12.2031 0 -23.9873 1.73242 -35.1699 4.92969l-183.55 52.4404
c-13.3906 3.8252 -23.21 16.1582 -23.21 30.7695v79.7207c0 14.6113 9.81934 26.9443 23.21 30.7695l183.55 52.4502c11.1846 3.18945 22.9678 4.91797 35.1699 4.91992h141.49c19.5098 9.88965 41.25 16 64.5801 16s45.0703 -6.11035 64.5801 -16h95.4199zM448 96
c52.9834 0 96 43.0166 96 96s-43.0166 96 -96 96s-96 -43.0166 -96 -96s43.0166 -96 96 -96zM498.91 231.6c1.44727 -1.44727 2.3418 -3.44922 2.3418 -5.65527c0 -2.20703 -0.894531 -4.20605 -2.3418 -5.6543l-28.2803 -28.29l28.2803 -28.2803
c1.4502 -1.44824 2.34766 -3.45117 2.34766 -5.66113c0 -2.20898 -0.897461 -4.20996 -2.34766 -5.6582l-11.3105 -11.3105c-1.44824 -1.4502 -3.45117 -2.34766 -5.66113 -2.34766c-2.20898 0 -4.20996 0.897461 -5.6582 2.34766l-28.2803 28.2803l-28.29 -28.2803
c-1.44824 -1.44727 -3.44922 -2.3418 -5.65625 -2.3418s-4.20605 0.894531 -5.65332 2.3418l-11.3105 11.3105c-1.4502 1.44824 -2.34766 3.45117 -2.34766 5.66113c0 2.20898 0.897461 4.20996 2.34766 5.6582l28.2803 28.2803l-28.2803 28.29
c-1.44727 1.44824 -2.3418 3.44922 -2.3418 5.65625s0.894531 4.20605 2.3418 5.65332l11.3105 11.3105c1.44727 1.44727 3.44922 2.3418 5.65527 2.3418c2.20703 0 4.20605 -0.894531 5.6543 -2.3418l28.29 -28.2803l28.2803 28.2803
c1.44824 1.4502 3.45117 2.34766 5.66113 2.34766c2.20898 0 4.20996 -0.897461 5.6582 -2.34766z" />
    <glyph glyph-name="lasso" unicode="&#xf8c8;" horiz-adv-x="576" 
d="M288 448c161.5 0 288 -79.6504 288 -181.3c0 -101.65 -126.5 -181.28 -288 -181.28c-0.307617 -0.000976562 -0.118164 -0.0185547 -0.425781 -0.0185547c-16.7432 0 -33.2832 0.880859 -49.5742 2.59863c4.35547 -13.2559 6.74609 -27.374 6.74609 -42.0791
c0 -1.18359 -0.015625 -2.36426 -0.0458984 -3.54102c-0.959961 -59.1602 -50.3799 -106.38 -109.76 -106.38h-86.9404c-8.81055 0 -15.9668 7.1377 -16 15.9404v32.1191c0.0332031 8.80273 7.18945 15.9404 16 15.9404h86.9404
c0.0078125 0 0.0146484 -0.00976562 0.0224609 -0.00976562c25.2227 0 45.7002 20.4775 45.7002 45.6992c0 0.1875 -0.000976562 0.374023 -0.00292969 0.560547c-0.105469 6.19727 -1.04492 12.2051 -2.69043 17.9004
c-0.669922 -0.0107422 -1.30957 -0.160156 -2 -0.160156c-44.1797 0 -80 28.6494 -80 64c0 0.889648 0.330078 1.70996 0.330078 2.59961c-3.92969 2.12012 -7.78027 4.24023 -11.2998 6.41016c-54.7803 33.8604 -85 79.9199 -85 129.7c0 101.67 126.5 181.3 288 181.3z
M288 149.18c119.31 0 224 54.9102 224 117.521c0 62.6094 -104.69 117.54 -224 117.54s-224 -54.9307 -224 -117.54c0 -36.2705 34.3096 -62.8701 54.75 -75.4902c4.73047 -2.91992 10.4697 -5.75 16.0498 -8.61035c12.3936 5.98926 26.377 9.40039 41.0537 9.40039
h0.146484c34 0 62.79 -17 74.4004 -40.8203c12.3691 -1.18945 24.8691 -2 37.5996 -2z" />
    <glyph glyph-name="list-music" unicode="&#xf8c9;" 
d="M16 192c-8.83105 0 -16 7.16895 -16 16v32c0 8.83105 7.16895 16 16 16h256c8.83105 0 16 -7.16895 16 -16v-32c0 -8.83105 -7.16895 -16 -16 -16h-256zM16 320c-8.83105 0 -16 7.16895 -16 16v32c0 8.83105 7.16895 16 16 16h256c8.83105 0 16 -7.16895 16 -16v-32
c0 -8.83105 -7.16895 -16 -16 -16h-256zM144 128c8.83105 0 16 -7.16895 16 -16v-32c0 -8.83105 -7.16895 -16 -16 -16h-128c-8.83105 0 -16 7.16895 -16 16v32c0 8.83105 7.16895 16 16 16h128zM470.94 446.67c2.87402 0.848633 5.91211 1.30859 9.05957 1.30859
c17.6543 0 31.9883 -14.3271 32 -31.9785v-64.0498c0 -14.5361 -9.7168 -26.8174 -23 -30.71l-73 -21.3906v-283.85c0 -44.1797 -50.1396 -80 -112 -80s-112 35.8203 -112 80s50.1396 80 112 80c16.7803 -0.0146484 32.9502 -2.85449 48 -8v299.66
c0.0126953 14.3086 9.43652 26.4248 22.4102 30.5z" />
    <glyph glyph-name="microphone-stand" unicode="&#xf8cb;" 
d="M289.54 387.47l2.17969 2.19043l161.94 -161.92l-2.19043 -2.18066c-23.8398 -23.8594 -55.5596 -34.5791 -86.7793 -33l-108.15 108.141c-1.57031 31.2197 9.15039 62.9297 33 86.7695zM6.74023 24.8203l225.26 255.18l112 -112l-56 -49.4404v-166.56
c0 -8.83105 -7.16895 -16 -16 -16h-32c-8.83105 0 -16 7.16895 -16 16v110.07l-135.18 -119.33c-4.7168 -4.16895 -10.9297 -6.70898 -17.7129 -6.70898c-7.38574 0 -14.0762 3.00098 -18.917 7.84863l-44.3809 44.3701c-4.82324 4.82715 -7.80078 11.5078 -7.80078 18.8643
c0 6.79199 2.54395 12.9951 6.73145 17.7061zM478.46 414.46c20.7285 -20.7246 33.5576 -49.3818 33.5576 -80.9805s-12.8291 -60.2246 -33.5576 -80.9492l-2.17969 -2.18066l-161.94 161.931l2.19043 2.17969c20.7246 20.7285 49.3818 33.5576 80.9805 33.5576
s60.2246 -12.8291 80.9492 -33.5576z" />
    <glyph glyph-name="mouse" unicode="&#xf8cc;" horiz-adv-x="384" 
d="M0 96v128h384v-128c0 -88.3066 -71.6934 -160 -160 -160h-64c-88.3066 0 -160 71.6934 -160 160zM176 448v-192h-176v32c0 88.3066 71.6934 160 160 160h16zM224 448c88.3066 0 160 -71.6934 160 -160v-32h-176v192h16z" />
    <glyph glyph-name="mouse-alt" unicode="&#xf8cd;" horiz-adv-x="384" 
d="M224 448c88.3066 0 160 -71.6934 160 -160v-192c0 -88.3066 -71.6934 -160 -160 -160h-64c-88.3066 0 -160 71.6934 -160 160v192c0 88.3066 71.6934 160 160 160h64zM224 288v32c0 17.6611 -14.3389 32 -32 32s-32 -14.3389 -32 -32v-32c0 -17.6611 14.3389 -32 32 -32
s32 14.3389 32 32z" />
    <glyph glyph-name="mp3-player" unicode="&#xf8ce;" horiz-adv-x="384" 
d="M336 448c26.4922 0 48 -21.5078 48 -48v-416c0 -26.4922 -21.5078 -48 -48 -48h-288c-26.4922 0 -48 21.5078 -48 48v416c0 26.4922 21.5078 48 48 48h288zM192 0c52.9834 0 96 43.0166 96 96s-43.0166 96 -96 96s-96 -43.0166 -96 -96s43.0166 -96 96 -96zM320 256v128
h-256v-128h256zM192 128c17.6611 0 32 -14.3389 32 -32s-14.3389 -32 -32 -32s-32 14.3389 -32 32s14.3389 32 32 32z" />
    <glyph glyph-name="music-alt" unicode="&#xf8cf;" horiz-adv-x="384" 
d="M310.94 446.67c2.87402 0.848633 5.91211 1.30859 9.05957 1.30859c17.6543 0 31.9883 -14.3271 32 -31.9785v-64.0498c0 -14.5361 -9.7168 -26.8174 -23 -30.71l-73 -21.3906v-283.85c0 -44.1797 -50.1396 -80 -112 -80s-112 35.8203 -112 80s50.1396 80 112 80
c16.7803 -0.0146484 32.9502 -2.85449 48 -8v299.66c0.0126953 14.3086 9.43652 26.4248 22.4102 30.5z" />
    <glyph glyph-name="music-alt-slash" unicode="&#xf8d0;" horiz-adv-x="640" 
d="M272 96c5.81543 -0.150391 11.4639 -0.640625 17.0898 -1.45996l94.9102 -73.3604v-5.17969c0 -44.1797 -50.1396 -80 -112 -80s-112 35.8203 -112 80s50.1396 80 112 80zM633.82 -10.0996c3.76562 -2.92871 6.1709 -7.50781 6.1709 -12.6426
c0 -3.69434 -1.25488 -7.09863 -3.36133 -9.80762l-19.6299 -25.2705c-2.92773 -3.77051 -7.51074 -6.18066 -12.6504 -6.18066c-3.69922 0 -7.1084 1.25879 -9.81934 3.37109l-588.351 454.71c-3.76562 2.92871 -6.1709 7.50781 -6.1709 12.6426
c0 3.69434 1.25488 7.09766 3.36133 9.80762l19.6299 25.2695c2.92773 3.77148 7.51074 6.18066 12.6504 6.18066c3.69922 0 7.1084 -1.25879 9.81934 -3.37012l274.53 -212.17v155.22c0.0117188 14.3057 9.43066 26.4209 22.4004 30.5l96.5293 28.5098
c2.87695 0.850586 5.91895 1.3125 9.07031 1.3125c17.6553 0 31.9902 -14.3291 32 -31.9824v-64.0498c0 -14.5361 -9.7168 -26.8174 -23 -30.71l-73 -21.3906v-116.85z" />
    <glyph glyph-name="music-slash" unicode="&#xf8d1;" horiz-adv-x="640" 
d="M192 60.0801v109.5l64 -49.46v-120.12c0 -35.3398 -43 -64 -96 -64s-96 28.6602 -96 64s43 64 96 64c11.0352 -0.0625 21.7139 -1.42285 32 -3.91992zM633.82 -10.0996c3.76562 -2.92871 6.1709 -7.50781 6.1709 -12.6426
c0 -3.69434 -1.25488 -7.09863 -3.36133 -9.80762l-19.6299 -25.2705c-2.92773 -3.77051 -7.51074 -6.18066 -12.6504 -6.18066c-3.69922 0 -7.1084 1.25879 -9.81934 3.37109l-588.351 454.71c-3.76562 2.92871 -6.1709 7.50781 -6.1709 12.6426
c0 3.69434 1.25488 7.09766 3.36133 9.80762l19.6299 25.2695c2.92773 3.77148 7.51074 6.18066 12.6504 6.18066c3.69922 0 7.1084 -1.25879 9.81934 -3.37012l147.94 -114.341c2.89551 10.3027 10.8428 18.4971 21 21.7305l319.97 94.4902
c3.03613 0.957031 6.26953 1.47949 9.62012 1.47949c17.6514 0 31.9834 -14.3223 32 -31.9697v-352c0 -8.46973 -2.73047 -16.4502 -7.24023 -23.8203zM512 124.08v184.62l-210.76 -61.8105l156.609 -121c7.2334 1.28906 14.5742 2.00684 22.1504 2.11035
c11.0352 -0.0625 21.7139 -1.42285 32 -3.91992z" />
    <glyph glyph-name="phone-rotary" unicode="&#xf8d3;" 
d="M370.43 255.75l105.351 -184.37c2.6709 -4.67285 4.21875 -10.1162 4.21973 -15.8799v-55.5c0 -17.6611 -14.3389 -32 -32 -32h-384c-17.6611 0 -32 14.3389 -32 32v55.5c0.000976562 5.76367 1.54883 11.207 4.21973 15.8799l105.351 184.37
c11.0264 19.2988 31.7695 32.25 55.5693 32.25h117.721c23.7998 0 44.543 -12.9512 55.5693 -32.25zM256 64c39.7383 0 72 32.2617 72 72s-32.2617 72 -72 72s-72 -32.2617 -72 -72s32.2617 -72 72 -72zM506.18 325c3.56543 -3.01855 5.82031 -7.52051 5.82031 -12.5527
v-0.0869141v-56.3604c0 -8.83105 -7.16895 -16 -16 -16h-70.1104c-6.26562 0.000976562 -11.6855 3.59668 -14.3096 8.84961l-27.5801 71.1504c-39.9297 17.2803 -83.2305 24 -128 24c-44.7998 0 -88.0996 -6.71973 -128 -24l-27.5801 -71.1504
c-2.62402 -5.25293 -8.04395 -8.84863 -14.3096 -8.84961h-70.1104c-8.83105 0 -16 7.16895 -16 16v56.3604c0 0.0283203 -0.00976562 0.0517578 -0.00976562 0.0810547c0 5.03223 2.26465 9.54004 5.83008 12.5586c69.4199 58 158.8 91 250.18 91s180.76 -33 250.18 -91z
" />
    <glyph glyph-name="piano-keyboard" unicode="&#xf8d5;" horiz-adv-x="576" 
d="M544 385c17.6611 0 32 -14.3389 32 -32v-320c0 -17.6611 -14.3389 -32 -32 -32h-512c-17.6611 0 -32 14.3389 -32 32v320c0 17.6611 14.3389 32 32 32h512zM144 65v64c-8.83105 0 -16 7.16895 -16 16v80h-64v-160h80zM272 65v64c-8.83105 0 -16 7.16895 -16 16v80h-64
v-80c0 -8.83105 -7.16895 -16 -16 -16v-64h96zM400 65v64c-8.83105 0 -16 7.16895 -16 16v80h-64v-80c0 -8.83105 -7.16895 -16 -16 -16v-64h96zM512 65v160h-64v-80c0 -8.83105 -7.16895 -16 -16 -16v-64h80z" />
    <glyph glyph-name="projector" unicode="&#xf8d6;" horiz-adv-x="640" 
d="M592 256c26.4922 0 48 -21.5078 48 -48v-160c0 -26.4922 -21.5078 -48 -48 -48h-16l-13 -51.8799c-1.7373 -6.95117 -8.02539 -12.1143 -15.5098 -12.1201h-39c-7.47559 0.015625 -13.7539 5.17578 -15.4902 12.1201l-11.2197 44.75
c54.9395 20.3096 94.2197 73.2197 94.2197 135.13c-0.0429688 55.7607 -31.6719 104.069 -78.0801 128h94.0801zM288 128c0.0429688 -55.7607 31.6719 -104.069 78.0801 -128h-206.08l-13 -51.8799c-1.7373 -6.95117 -8.02539 -12.1143 -15.5098 -12.1201h-39
c-7.47559 0.015625 -13.7539 5.17578 -15.4902 12.1201l-13 51.8799h-16c-26.4922 0 -48 21.5078 -48 48v160c0 26.4922 21.5078 48 48 48h318.08c-46.4082 -23.9307 -78.0371 -72.2393 -78.0801 -128zM96 96c17.6611 0 32 14.3389 32 32s-14.3389 32 -32 32
s-32 -14.3389 -32 -32s14.3389 -32 32 -32zM192 96c17.6611 0 32 14.3389 32 32s-14.3389 32 -32 32s-32 -14.3389 -32 -32s14.3389 -32 32 -32zM544 128c-0.0878906 -61.7734 -50.2266 -111.912 -112 -112c-61.8145 0 -112 50.1855 -112 112s50.1855 112 112 112
s112 -50.1855 112 -112zM424 168c8.83105 0 16 7.16895 16 16s-7.16895 16 -16 16c-35.3047 -0.0380859 -63.9619 -28.6953 -64 -64c0 -8.83105 7.16895 -16 16 -16s16 7.16895 16 16c0 17.6611 14.3389 32 32 32zM424 320c-8.83105 0 -16 7.16895 -16 16v96
c0 8.83105 7.16895 16 16 16h16c8.83105 0 16 -7.16895 16 -16v-96c0 -8.83105 -7.16895 -16 -16 -16h-16zM517.65 314.35l-11.3105 11.3105c-2.89355 2.89551 -4.68457 6.89844 -4.68457 11.3125c0 4.41309 1.79102 8.41113 4.68457 11.3076l67.8799 67.8896
c2.89648 2.89746 6.90137 4.68945 11.3174 4.68945s8.41699 -1.79199 11.3125 -4.68945l11.3105 -11.3096c2.89648 -2.89648 4.68945 -6.90137 4.68945 -11.3174s-1.79297 -8.41699 -4.68945 -11.3125l-67.8799 -67.8809
c-2.89648 -2.89648 -6.90137 -4.68945 -11.3174 -4.68945s-8.41699 1.79297 -11.3125 4.68945zM323.72 314.35l-67.8799 67.8809c-2.89648 2.89551 -4.68945 6.90039 -4.68945 11.3164s1.79297 8.41699 4.68945 11.3135l11.3105 11.3096
c2.89551 2.89746 6.90039 4.68945 11.3164 4.68945s8.41699 -1.79199 11.3135 -4.68945l67.8799 -67.8896c2.89355 -2.89648 4.68457 -6.89941 4.68457 -11.3125s-1.79102 -8.41211 -4.68457 -11.3076l-11.3105 -11.3105
c-2.89551 -2.89648 -6.90039 -4.68945 -11.3164 -4.68945s-8.41699 1.79297 -11.3135 4.68945z" />
    <glyph glyph-name="radio" unicode="&#xf8d7;" 
d="M447 321c35.3223 0 64 -28.6777 64 -64v-256c0 -35.3223 -28.6777 -64 -64 -64h-384c-35.3223 0 -64 28.6777 -64 64v256c0 35.3223 28.6777 64 64 64l423.33 127.4c1.38086 0.388672 2.83105 0.595703 4.33496 0.595703c7.3291 0 13.5137 -4.93848 15.4053 -11.666
l4.33008 -15.3799c0.388672 -1.38086 0.595703 -2.83105 0.595703 -4.33496c0 -7.3291 -4.93848 -13.5137 -11.666 -15.4053l-288.83 -81.21h236.5zM207 201c0 4.41504 -3.58496 8 -8 8h-112c-4.41504 0 -8 -3.58496 -8 -8v-16c0 -4.41504 3.58496 -8 8 -8h112
c4.41504 0 8 3.58496 8 8v16zM207 57v16c0 4.41504 -3.58496 8 -8 8h-112c-4.41504 0 -8 -3.58496 -8 -8v-16c0 -4.41504 3.58496 -8 8 -8h112c4.41504 0 8 3.58496 8 8zM223 121v16c0 4.41504 -3.58496 8 -8 8h-144c-4.41504 0 -8 -3.58496 -8 -8v-16
c0 -4.41504 3.58496 -8 8 -8h144c4.41504 0 8 3.58496 8 8zM367 49c44.1533 0 80 35.8467 80 80s-35.8467 80 -80 80s-80 -35.8467 -80 -80s35.8467 -80 80 -80z" />
    <glyph glyph-name="radio-alt" unicode="&#xf8d8;" 
d="M448 320c35.3223 0 64 -28.6777 64 -64v-256c0 -35.3223 -28.6777 -64 -64 -64h-384c-35.3223 0 -64 28.6777 -64 64v256c0 35.3223 28.6777 64 64 64l423.33 127.4c1.38086 0.388672 2.83105 0.595703 4.33496 0.595703c7.3291 0 13.5137 -4.93848 15.4053 -11.666
l4.33008 -15.3799c0.388672 -1.38086 0.595703 -2.83105 0.595703 -4.33496c0 -7.3291 -4.93848 -13.5137 -11.666 -15.4053l-288.83 -81.21h236.5zM224 24v16c0 4.41504 -3.58496 8 -8 8h-112c-4.41504 0 -8 -3.58496 -8 -8v-16c0 -4.41504 3.58496 -8 8 -8h112
c4.41504 0 8 3.58496 8 8zM256 88v16c0 4.41504 -3.58496 8 -8 8h-176c-4.41504 0 -8 -3.58496 -8 -8v-16c0 -4.41504 3.58496 -8 8 -8h176c4.41504 0 8 3.58496 8 8zM384 0c35.3223 0 64 28.6777 64 64s-28.6777 64 -64 64s-64 -28.6777 -64 -64s28.6777 -64 64 -64z
M448 192v64h-384v-64h384z" />
    <glyph glyph-name="record-vinyl" unicode="&#xf8d9;" 
d="M256 296c57.3994 0 104 -46.6006 104 -104s-46.6006 -104 -104 -104s-104 46.6006 -104 104s46.6006 104 104 104zM256 168c13.2461 0 24 10.7539 24 24s-10.7539 24 -24 24s-24 -10.7539 -24 -24s10.7539 -24 24 -24zM256 440c137 0 248 -111 248 -248
s-111 -248 -248 -248s-248 111 -248 248s111 248 248 248zM256 64c70.6455 0 128 57.3545 128 128s-57.3545 128 -128 128s-128 -57.3545 -128 -128s57.3545 -128 128 -128z" />
    </font>
</defs>
</svg>
